Register · 
Username: Password:
 ·  Forgot password?

Яйцо / Jajo (Конрад Шолайский / Konrad Szolajski) [1984, Польша, фантастика, фэнтези, TVRip-AVC] VO + Sub Rus, Eng + Original Pol

Reply to topic
DL-List and Torrent activity [Update пиров]
Size:  611 MB   |    Registered:  1 month 3 days   |    Completed:  0 times

Seeder not seen: Never

 
   
 
 
 
Author Message

Andrew1225 ®

Gender:

Longevity: 6 years 3 months

Posts: 17566

Post 21-Dec-2019 10:36

[Quote]

Яйцо / Jajo
Страна: Польша
Жанр: фантастика, фэнтези
Год выпуска: 1984
Продолжительность: 0:45:18
Перевод: Одноголосый закадровый (Horror Maker)
Субтитры: русские (sasha20072007), английские (edkrak)
Оригинальная аудиодорожка: польский
Режиссер: Конрад Шолайский / Konrad Szołajski
В ролях: Марта Клубович, Януш Михаловский, Ежи Новак, Эва Жуковска, Анджей Шопа, Мария Збышевска
Описание: Лаборантка Ева попала в институт профессора Августиньяка. который вместе с женой проводит эксперименты с применением ускорителя собственной конструкции. В результате ее работы из яйца вылупливается таинственное создание, которое насилует и оплодотворяет жену профессора...
Доп. информация:
Качество видео: TVRip-AVC
Формат видео: MKV
Видео: 704x492 (1.431), 25.000 fps, AVC, ~1500 Kbps, 0.173 bits/pixel
Аудио 1: 48 kHz, AC3 Dolby Digital, 2/0 (L,R) ch, ~192 kbps [RUS]
Аудио 2: 48 kHz, AC3 Dolby Digital, 2/0 (L,R) ch, ~192 kbps [POL]
Формат субтитров: softsub (SRT)

БОЛЬШОЕ СПАСИБО sasha20072007 (kosmoaelita) за перевод, Horror Maker за озвучивание

MediaInfo

ОбщееУникальный идентификатор : 289400541035973337099764300989000312396 (0xD9B8844C5E920C1CBD19C4E0E823E64C)Полное имя : ...\Jajo 1984.mkvФормат : MatroskaВерсия формата : Version 4Размер файла : 611 МбайтПродолжительность : 45 м. 18 с.Общий поток : 1886 Кбит/секНазвание фильма : Jajo / Яйцо / 1984Дата кодирования : UTC 2019-12-20 07:37:18Программа кодирования : mkvmerge v41.0.0 ('Smarra') 64-bitБиблиотека кодирования : libebml v1.3.9 + libmatroska v1.5.2
ВидеоИдентификатор : 1Формат : AVCФормат/Информация : Advanced Video CodecПрофиль формата : High@L4.1Настройки формата : CABAC / 8 Ref FramesПараметр CABAC формата : ДаПараметр RefFrames формата : 8 кадровИдентификатор кодека : V_MPEG4/ISO/AVCПродолжительность : 45 м. 18 с.Битрейт : 1500 Кбит/секШирина : 704 пикселяВысота : 492 пикселяСоотношение сторон : 1,431Режим частоты кадров : ПостоянныйЧастота кадров : 25,000 кадров/секЦветовое пространство : YUVСубдискретизация насыщенности : 4:2:0Битовая глубина : 8 битТип развёртки : ПрогрессивнаяБит/(Пиксели*Кадры) : 0.173Размер потока : 486 Мбайт (80%)Библиотека кодирования : x264 core 130 r2273 b3065e6Настройки программы : cabac=1 / ref=8 / deblock=1:-3:-3 / analyse=0x3:0x133 / me=umh / subme=10 / psy=1 / psy_rd=0.99:0.14 / mixed_ref=1 / me_range=24 / chroma_me=1 / trellis=2 / 8x8dct=1 / cqm=0 / deadzone=21,11 / fast_pskip=1 / chroma_qp_offset=-3 / threads=6 / lookahead_threads=1 / sliced_threads=0 / nr=0 / decimate=1 / interlaced=0 / bluray_compat=0 / constrained_intra=0 / bframes=8 / b_pyramid=2 / b_adapt=2 / b_bias=0 / direct=3 / weightb=1 / open_gop=0 / weightp=2 / keyint=210 / keyint_min=21 / scenecut=40 / intra_refresh=0 / rc_lookahead=60 / rc=2pass / mbtree=1 / bitrate=1500 / ratetol=1.0 / qcomp=0.65 / qpmin=0 / qpmax=69 / qpstep=4 / cplxblur=20.0 / qblur=0.5 / ip_ratio=1.25 / aq=1:0.90Default : ДаForced : Нет
Аудио #1Идентификатор : 2Формат : AC-3Формат/Информация : Audio Coding 3Коммерческое название : Dolby DigitalИдентификатор кодека : A_AC3Продолжительность : 45 м. 18 с.Вид битрейта : ПостоянныйБитрейт : 192 Кбит/секКаналы : 2 каналаChannelLayout : L RЧастота : 48,0 КГцЧастота кадров : 31,250 кадров/сек (1536 SPF)Метод сжатия : С потерямиРазмер потока : 62,2 Мбайт (10%)Заголовок : Русский ЛО (Horror Maker) по субтитрам от kosmoaelitaЯзык : RussianServiceKind/String : Complete MainDefault : ДаForced : Нет
Аудио #2Идентификатор : 3Формат : AC-3Формат/Информация : Audio Coding 3Коммерческое название : Dolby DigitalИдентификатор кодека : A_AC3Продолжительность : 45 м. 18 с.Вид битрейта : ПостоянныйБитрейт : 192 Кбит/секКаналы : 2 каналаChannelLayout : L RЧастота : 48,0 КГцЧастота кадров : 31,250 кадров/сек (1536 SPF)Метод сжатия : С потерямиРазмер потока : 62,2 Мбайт (10%)Язык : PolishServiceKind/String : Complete MainDefault : НетForced : Нет
Текст #1Идентификатор : 4Формат : UTF-8Идентификатор кодека : S_TEXT/UTF8Идентификатор кодека/Информация : UTF-8 Plain TextПродолжительность : 43 м. 49 с.Битрейт : 59 бит/секElementCount : 288Размер потока : 19,0 Кбайт (0%)Заголовок : Русский (kosmoaelita) на слух с польскогоЯзык : RussianDefault : НетForced : Нет
Текст #2Идентификатор : 5Формат : UTF-8Идентификатор кодека : S_TEXT/UTF8Идентификатор кодека/Информация : UTF-8 Plain TextПродолжительность : 42 м. 15 с.Битрейт : 32 бит/секElementCount : 268Размер потока : 9,92 Кбайт (0%)Язык : EnglishDefault : НетForced : Нет
Фрагмент субтитров">

Скриншоты Фрагмент субтитров


1900:02:45,990 --> 00:02:50,180Девушка!Девушка, вы куда?
2000:03:04,520 --> 00:03:06,920- Пожалуйста...- Нет-нет. Я возьму с собой.
2100:03:08,920 --> 00:03:10,500Пожалуйста.
2200:03:10,810 --> 00:03:15,560- Где у вас туалет?- Там.
2300:03:17,320 --> 00:03:19,610Спасибо.
2400:03:53,210 --> 00:03:58,000Я читала недавно "Спонтанныйпартеногенез у мышей".
2500:03:58,790 --> 00:04:04,520И статью из последнего номера"Nature"... Забыла, кто автор.
2600:04:04,590 --> 00:04:07,740Выпейте.Очень полезно для здоровья.
2700:04:11,170 --> 00:04:13,650Хочу показать кое-что...
2800:04:30,320 --> 00:04:32,300Куриное?
2900:04:33,280 --> 00:04:36,990Пан Яцек, принесите одно...из тех своих яиц.
3000:04:40,050 --> 00:04:42,090Куриное, но сильно облученное.
3100:04:42,210 --> 00:04:47,080У вас в лаборатории есть ускоритель.Можно было бы произвестизамечательную новую мутацию.
3200:04:47,320 --> 00:04:49,440Да... Выпейте... пожалуйста.
3300:04:50,320 --> 00:04:55,380- Вы впервые в нашем городе?- Да, приехала час назад.
3400:04:55,500 --> 00:05:00,750- Вы видели наш замечательный костёл,библиотеку? - Да, по дороге сюда.
3500:05:00,920 --> 00:05:04,910- И никогда раньше у нас не были?- Не была.
3600:05:06,370 --> 00:05:09,660Но мы могли встречатьсяв прошлой жизни.
3700:05:12,640 --> 00:05:14,630Я была птицей.
3800:05:14,800 --> 00:05:18,970- Птицей?- Кукушкой.
[ru-zerkalo.org]_t_5823213
Torrent: Registered ·  [ 2019-12-21 10:36 ] ·  dd6808c1b44f3568a44e3297587e98ab6b269068

12 KB

Status: checked
Completed: 0 times
Size: 611 MB
Rating: 
(Votes: 0)
Say thanks: 0  Thanks
 
Похожие темы
[Profile] [PM]
Display posts from previous:    
Reply to topic

The time now is: Today 22:29

All times are GMT + 7 Hours



You cannot post new topics in this forum
You cannot reply to topics in this forum
You cannot edit your posts in this forum
You cannot delete your posts in this forum
You cannot vote in polls in this forum
You cannot attach files in this forum
You can download files in this forum