Register · 
Username: Password:
 ·  Forgot password?

Ронин / Ronin (Джон Франкенхаймер / John Frankenheimer) [1998, Великобритания, США, Боевик, триллер, криминал, BDRip] [4K Restoration] Dub (ТВ3) + MVO (LDV) + 2x AVO (Гаврилов, Живов) + Original (Eng) + Sub Rus, Eng

Reply to topic
DL-List and Torrent activity [Update пиров]
Size:  3.32 GB   |    Registered:  1 month 3 days   |    Completed:  0 times

Seeder not seen: Never

 
   
 
 
 
Author Message

FragoMan ®

Gender:

Longevity: 6 years 3 months

Posts: 24922

Post 21-Dec-2019 11:39

[Quote]

Ронин / Ronin«Anyone is an enemy for a price»--
Страна: Великобритания, Франция, США
Жанр: Боевик, Триллер, Криминал
Год выхода: 1998
Продолжительность: 02:01:35
Перевод #1: Профессиональный (многоголосый, закадровый) | LDV |
Перевод #2: Профессиональный (дублированный) | ТВ3 |
Перевод #3: Авторский (одноголосый, закадровый) | А. Гаврилов |
Перевод #4: Авторский (одноголосый, закадровый) | Ю. Живов |
Оригинальная аудиодорожка: Английский
Субтитры: Русские (3 вида), Английские (полные, форсированные, SDH).
Режиссер: Джон Франкенхаймер / John Frankenheimer
В ролях: Роберт Де Ниро, Жан Рено, Наташа МакЭлхоун, Стеллан Скарсгард, Шон Бин, Скипп Саддат, Микаэль Лонсдаль, Ян Триска, Джонатан Прайс, Рон Перкинс
О фильме: Хотя холодная война давно закончена, тайные наемники, чьи навыки в слежке, шпионаже и силовых схватках буквально легендарны, остаются востребованными при новом мировом порядке и всегда находят высокооплачиваемую работу. Некий таинственный клиент собирает в Париже команду таких «платных оперативников», известных как «Ронины», для похищения сверхсекретного портфеля.
Вскоре выясняется, что это, на первый взгляд простое, задание почти невыполнимо: та же цена обещана за тот же портфель еще нескольким нелегальным группам.
Чтобы справиться с работой, бывший агент ЦРУ по кличке «Сэм» и его наспех сколоченный отряд должны делать то, чего им не приходилось делать никогда раньше: довериться друг другу…


HRIME
Сэмпл: скачать
Формат: AVI
Качество: BDRip ( BDRemux - arxivariys)
Кодек: XviD, build 67 codec
Видео: 720 x 304; 23.976 fps; 1909 kbps; 0.364 bit/pixel
Аудио #1: RUS AC3 Dolby Digital; 448 Kbps; 6 channels; 48 KHz
Аудио #2: RUS AC3 Dolby Digital; 192 Kbps; 2 channels; 48 KHz
Аудио #3: RUS AC3 Dolby Digital; 448 Kbps; 6 channels; 48 KHz // AVO.Gavrilov / отдельно
Аудио #4: RUS AC3 Dolby Digital; 448 Kbps; 6 channels; 48 KHz // AVO.Zhivov / отдельно
Аудио #5: ENG AC3 Dolby Digital; 448 Kbps; 6 channels; 48 KHz / отдельно--

Скриншоты


Media Info

General
Complete name                            : Ronin.1998.DUALRUS.BDRip.XviD.AC3.-.avi
Format                                   : AVI
Format/Info                              : Audio Video Interleave
Format profile                           : OpenDML
File size                                : 2.18 GiB
Duration                                 : 2h 1mn
Overall bit rate                         : 2 567 Kbps
Movie name                               : Ronin.1998.John.Frankenheimer
Director                                 : HRIME
Writing application                      : VirtualDubMod 1.5.10.2 (build 2540/release)
Original source form/Name                : Movie
Copyright                                :
Comment                                  : 14.11.2019
Video
ID                                       : 0
Format                                   : MPEG-4 Visual
Format profile                           : Advanced Simple@L5
Format settings, BVOP                    : 1
Format settings, QPel                    : No
Format settings, GMC                     : No warppoints
Format settings, Matrix                  : Custom
Codec ID                                 : XVID
Codec ID/Hint                            : XviD
Duration                                 : 2h 1mn
Bit rate                                 : 1 909 Kbps
Width                                    : 720 pixels
Height                                   : 304 pixels
Display aspect ratio                     : 2.35:1
Frame rate                               : 23.976 fps
Color space                              : YUV
Chroma subsampling                       : 4:2:0
Bit depth                                : 8 bits
Scan type                                : Progressive
Compression mode                         : Lossy
Bits/(Pixel*Frame)                       : 0.364
Stream size                              : 1.62 GiB (74%)
Writing library                          : XviD 67
Audio #1
ID                                       : 1
Format                                   : AC-3
Format/Info                              : Audio Coding 3
Mode extension                           : CM (complete main)
Codec ID                                 : 2000
Duration                                 : 2h 1mn
Bit rate mode                            : Constant
Bit rate                                 : 448 Kbps
Channel(s)                               : 6 channels
Channel positions                        : Front: L C R, Side: L R, LFE
Sampling rate                            : 48.0 KHz
Bit depth                                : 16 bits
Compression mode                         : Lossy
Stream size                              : 390 MiB (17%)
Alignment                                : Split accross interleaves
Interleave, duration                     : 42 ms (1.00 video frame)
Interleave, preload duration             : 500 ms
Audio #2
ID                                       : 2
Format                                   : AC-3
Format/Info                              : Audio Coding 3
Mode extension                           : CM (complete main)
Codec ID                                 : 2000
Duration                                 : 2h 1mn
Bit rate mode                            : Constant
Bit rate                                 : 192 Kbps
Channel(s)                               : 2 channels
Channel positions                        : Front: L R
Sampling rate                            : 48.0 KHz
Bit depth                                : 16 bits
Compression mode                         : Lossy
Stream size                              : 167 MiB (7%)
Alignment                                : Split accross interleaves
Interleave, duration                     : 42 ms (1.00 video frame)
Interleave, preload duration             : 500 ms
[ru-zerkalo.org]_t_5814709
Torrent: Registered ·  [ 2019-12-21 11:39 ] ·  4de4076fcea87eeed465e8dc7743bf8eca358141

18 KB

Status: checked
Completed: 0 times
Size: 3.32 GB
Rating: 
(Votes: 0)
Say thanks: 0  Thanks
 
Похожие темы
[Profile] [PM]
Display posts from previous:    
Reply to topic

The time now is: Today 22:25

All times are GMT + 7 Hours



You cannot post new topics in this forum
You cannot reply to topics in this forum
You cannot edit your posts in this forum
You cannot delete your posts in this forum
You cannot vote in polls in this forum
You cannot attach files in this forum
You can download files in this forum