Register · 
Username: Password:
 ·  Forgot password?

[TR24][OF] Premiata Forneria Marconi (PFM) - Emotional Tattoos (Expanded edition) - 2017 (Progressive Rock)

Reply to topic
DL-List and Torrent activity [Update пиров]
Size:  1.48 GB   |    Registered:  1 month 30 days   |    Completed:  1 time

Seeder not seen: 1 month 25 days

 
   
 
 
 
Author Message

ANTON1404 ®

Gender:

Longevity: 6 years 5 months

Posts: 19072

Post 28-Dec-2019 20:12

[Quote]

Premiata Forneria Marconi / Emotional Tattoos
Формат записи/Источник записи: [TR24][OF]
Издание: Expanded edition
Год издания/переиздания диска: 2017
Жанр: Progressive Rock
Издатель (лейбл): InsideOutMusic
Продолжительность: 01:59:11
Наличие сканов в содержимом раздачи: Нет
Треклист:
01 - We're Not an Island 07:12
02 - Morning Freedom 06:06
03 - The Lesson 05:08
04 - So Long 05:56
05 - A Day We Share 06:03
06 - There's a Fire in Me 04:55
07 - Central District 05:28
08 - Freedom Square 04:47
09 - I'm Just a Sound 05:57
10 - Hannah 05:16
11 - It's My Road 05:08
12 - Il Regno 07:12
13 - Oniro 06:06
14 - La lezione 05:08
15 - Mayday 05:56
16 - La danza degli specchi 06:03
17 - Il cielo che c'e 04:55
18 - Quartiere generale 05:28
19 - Dalla Terra alla Luna 05:57
20 - Le cose belle 05:16
21 - Big Bang 05:08
Контейнер: FLAC (*.flac)
Тип рипа: tracks
Разрядность: 24/48
Количество каналов: 2.0

Лог проверки качества

foobar2000 1.3.16 / Dynamic Range Meter 1.1.1log date: 2017-10-30 13:24:40
--------------------------------------------------------------------------------Analyzed: Premiata Forneria Marconi / Emotional Tattoos--------------------------------------------------------------------------------
DR Peak RMS Duration Track--------------------------------------------------------------------------------DR8 -0.54 dB -11.06 dB 7:13 01-We're Not an IslandDR10 -0.54 dB -13.09 dB 6:07 02-Morning FreedomDR8 -0.54 dB -9.99 dB 5:08 03-The LessonDR9 -0.54 dB -11.08 dB 5:56 04-So LongDR9 -0.54 dB -11.02 dB 6:03 05-A Day We ShareDR8 -0.54 dB -10.42 dB 4:56 06-There's a Fire in MeDR7 -0.54 dB -8.82 dB 5:28 07-Central DistrictDR8 -0.54 dB -10.39 dB 4:47 08-Freedom SquareDR9 -0.59 dB -11.40 dB 5:58 09-I'm Just a SoundDR9 -0.54 dB -11.97 dB 5:16 10-HannahDR8 -0.54 dB -10.33 dB 5:08 11-It's My RoadDR8 -0.54 dB -11.11 dB 7:13 01-Il RegnoDR10 -0.54 dB -13.14 dB 6:07 02-OniroDR8 -0.54 dB -10.03 dB 5:08 03-La lezioneDR9 -0.54 dB -11.10 dB 5:56 04-MaydayDR9 -0.59 dB -10.95 dB 6:03 05-La danza degli specchiDR9 -0.54 dB -10.57 dB 4:56 06-Il cielo che c'èDR7 -0.59 dB -8.78 dB 5:28 07-Quartiere generaleDR9 -0.59 dB -11.27 dB 5:58 08-Dalla Terra alla LunaDR9 -0.54 dB -11.80 dB 5:16 09-Le cose belleDR8 -0.54 dB -10.31 dB 5:08 10-Big Bang--------------------------------------------------------------------------------
Number of tracks: 21Official DR value: DR8
Samplerate: 48000 HzChannels: 2Bits per sample: 24Bitrate: 1831 kbpsCodec: FLAC================================================================================

Скриншот спектра частот

Источник (релизер): HDtracks

Состав

- Franz Di Cioccio / lead vocals, drums, arrangements
- Marco Sfogli / guitar, arrangements
- Alessandro Scaglione / keyboards, piano, orchestration (1)
- Alberto Bravin / keyboards, backing vocals
- Lucio Fabbri / violin, viola
- Patrick Djivas / bass, keyboards, arrangements
- Roberto Gualdi / percussion
With:
- Stefano Bollani / piano (11)

Об исполнителе (группе)

http://www.progarchives.com/artist.asp?id=289

Об альбоме (сборнике)

http://www.progarchives.com/album.asp?id=55582
[ru-zerkalo.org]_t_5826661
Torrent: Registered ·  [ 2019-12-28 20:12 ] ·  cbf8ddc573d8db3b316c5b9281be2ee690e3aabb

17 KB

Status: checked
Completed: 1 times
Size: 1.48 GB
Rating: 
(Votes: 0)
Say thanks: 0  Thanks
 
Похожие темы
[Profile] [PM]
Display posts from previous:    
Reply to topic

The time now is: Today 09:57

All times are GMT + 7 Hours



You cannot post new topics in this forum
You cannot reply to topics in this forum
You cannot edit your posts in this forum
You cannot delete your posts in this forum
You cannot vote in polls in this forum
You cannot attach files in this forum
You can download files in this forum