Register · 
Username: Password:
 ·  Forgot password?

Смерч / Twister (Ян Де Бонт / Jan De Bont) [1996, США, боевик, драма, триллер, приключения, VHSRip] VO

Reply to topic
DL-List and Torrent activity [Update пиров]
Size:  1.46 GB   |    Registered:  1 month 30 days   |    Completed:  1 time

Seeder not seen: 1 month 10 days

 
   
 
 
 
Author Message

FragoMan ®

Gender:

Longevity: 6 years 5 months

Posts: 25184

Post 28-Dec-2019 22:17

[Quote]

Смерч / Twister
Страна: США
Жанр: боевик, драма, триллер, приключения
Год выпуска: 1996
Продолжительность: 01:52:50
Перевод: Одноголосый закадровый [помогите опознать]
Субтитры: нет
Режиссер: Ян Де Бонт / Jan De Bont
В ролях: Хелен Хант (Dr. Jo Harding), Билл Пэкстон (Bill Harding), Кэри Элвис (Dr. Jonas Miller, Джейми Герц (Dr. Melissa Reeves), Филип Сеймур Хоффман (Dustin Davis), Лоис Смит (Meg Greene), Алан Рак (Robert «Rabbit» Nurick), Шоу Уэйлен (Allan Sanders), Скотт Томсон (Jason «Preacher» Rowe), Тодд Филд (Tim «Beltzer» Lewis)
Описание: Аннотация от alenavova:
Ураган, унесший домик Элли из "Волшебника Изумрудного города", - не выдумка! В Канзасе до сих пор бывают такие смерчи. Один из них унес отца девочки Джил в 1960-ом году. Вы поняли, что смерч - дело серьезное? Смотрите дальше! Девочка Джил выросла и придумала устройство, которое надо запустить внутрь смерча и узнать, что у него внутри. Для этого устройство надо, конечно, запустить. Так что нормальные люди удирают от урагана, а Джил с группой коллег за ураганом гоняются. Чтобы фильм не стал совсем уж производственным, у исследователей появляются конкуренты со своим аналогичным прибором. А также, для пущего "оживляжа", из города приезжает ученый Билли с молодой супругой. Погонявшись за смерчем, Билл теряет супругу и всякий к ней интерес и влюбляется в Джил, на радость всем коллегам... Но спецэффекты потрясающие, ради них и фильм снимали!
Доп. информация: Оцифровка VHS (личный архив) и получение VHSRip alenavova
Эксклюзив для . При размещении данного релиза на других сайтах ссылка на автора alenavova обязательна.


Сэмпл: http://yadi.sk/i/HXK4LjnOj5XCG
Качество видео: VHSRip
Формат видео: AVI
Видео: 704x528 (1.33:1), 25 fps, XviD build 73 ~1655 kbps avg, 0.18 bit/pixel
Аудио: 48 kHz, AC3 Dolby Digital, 2/0 (L,R) ch, ~192 kbps

MediaInfo

Смерч - Twister (by alenavova).avi
Format : AVI
Format/Info : Audio Video Interleave
File size : 1.46 GiB
Duration : 1 h 52 min
Overall bit rate : 1 858 kb/s
Movie name : Смерч - Twister (by alenavova)
Director : by alenavova
Writing application : VirtualDubMod 1.5.10.3 | www.virtualdub-fr.org || (build 2550/release)
Copyright : Edich2
Comment :
Video
ID : 0
Format : MPEG-4 Visual
Format profile : Advanced Simple@L5
Format settings : BVOP1 / Custom Matrix
Format settings, BVOP : 1
Format settings, QPel : No
Format settings, GMC : No warppoints
Format settings, Matrix : Custom
Codec ID : XVID
Codec ID/Hint : XviD
Duration : 1 h 52 min
Bit rate : 1 656 kb/s
Width : 704 pixels
Height : 528 pixels
Display aspect ratio : 4:3
Frame rate : 25.000 FPS
Color space : YUV
Chroma subsampling : 4:2:0
Bit depth : 8 bits
Scan type : Progressive
Compression mode : Lossy
Bits/(Pixel*Frame) : 0.178
Stream size : 1.31 GiB (89%)
Writing library : XviD 73
Audio
ID : 1
Format : AC-3
Format/Info : Audio Coding 3
Codec ID : 2000
Duration : 1 h 52 min
Bit rate mode : Constant
Bit rate : 192 kb/s
Channel(s) : 2 channels
Channel positions : Front: L R
Sampling rate : 48.0 kHz
Frame rate : 31.250 FPS (1536 SPF)
Bit depth : 16 bits
Compression mode : Lossy
Stream size : 155 MiB (10%)
Alignment : Split accross interleaves
Interleave, duration : 40 ms (1.00 video frame)
Interleave, preload duratio : 500 ms
Service kind : Complete Main

Скриншоты


[ru-zerkalo.org]_t_5078248
Torrent: Registered ·  [ 2019-12-28 22:17 ] ·  21e51616d76ca76f9f118296afb13dafff0d06ca

15 KB

Status: checked
Completed: 1 times
Size: 1.46 GB
Rating: 
(Votes: 0)
Say thanks: 0  Thanks
 
Похожие темы
[Profile] [PM]
Display posts from previous:    
Reply to topic

The time now is: Today 09:31

All times are GMT + 7 Hours



You cannot post new topics in this forum
You cannot reply to topics in this forum
You cannot edit your posts in this forum
You cannot delete your posts in this forum
You cannot vote in polls in this forum
You cannot attach files in this forum
You can download files in this forum