Register · 
Username: Password:
 ·  Forgot password?

Arturo Sandoval • Estival Jazz Lugano [2013, Jazz, HDTV, 720p]

Reply to topic
DL-List and Torrent activity [Update пиров]
Size:  7.37 GB   |    Registered:  2 months   |    Completed:  1 time

Seeder not seen: 1 month

 
   
 
 
 
Author Message

rychkalov ®

Gender:

Longevity: 6 years 5 months

Posts: 18853

Post 29-Dec-2019 05:42

[Quote]


Arturo Sandoval


Жанр: Jazz
Продолжительность: 00:57:30+00:39:21
Год выпуска: 2013
Качество: HDTV
Разрешение видео/развертка: 720p
Контейнер: TS
Видео кодек: H.264
Аудио кодек: AC3
Видео: MPEG4 Video (H264) 1280x720 50fps 9 917 kb/s - 9 897 kb/s
Аудио: Dolby AC3 48000Hz 6ch 448kbps

Треклист

Названия композиций в программе не указаны
Live at Estival Jazz Lugano, Piazza della Riforma, Switzerland, July 6, 2013
Arturo Sandoval - trumpet, piano, vocals
Ed Calle - sax
Mahesh Balasooriya - piano
Dennis Marks - bass
Alexis Arce - drums
Fausto Cuevas - percussion

Отчёт MediaInfo / BDInfo

GeneralID : 1700 (0x6A4)Complete name : F:\Arturo Sandoval part 1.tsFormat : MPEG-TSFile size : 4.38 GiBDuration : 57 min 29 sOverall bit rate mode : VariableOverall bit rate : 10.9 Mb/s
VideoID : 562 (0x232)Menu ID : 14052 (0x36E4)Format : AVCFormat/Info : Advanced Video CodecFormat profile : High@L4Format settings : CABAC / 3 Ref FramesFormat settings, CABAC : YesFormat settings, Reference fra : 3 framesFormat settings, GOP : M=2, N=24Codec ID : 27Duration : 57 min 29 sBit rate : 9 917 kb/sWidth : 1 280 pixelsHeight : 720 pixelsDisplay aspect ratio : 16:9Frame rate : 50.000 FPSStandard : ComponentColor space : YUVChroma subsampling : 4:2:0Bit depth : 8 bitsScan type : ProgressiveBits/(Pixel*Frame) : 0.215Stream size : 3.98 GiB (91%)Encryption : TPS-Crypt or ViaccessColor range : LimitedColor primaries : BT.709Transfer characteristics : BT.709Matrix coefficients : BT.709
AudioID : 565 (0x235)Menu ID : 14052 (0x36E4)Format : AC-3Format/Info : Audio Coding 3Commercial name : Dolby DigitalCodec ID : 6Duration : 57 min 29 sBit rate mode : ConstantBit rate : 448 kb/sChannel(s) : 6 channelsChannel layout : L R C LFE Ls RsSampling rate : 48.0 kHzFrame rate : 31.250 FPS (1536 SPF)Compression mode : LossyDelay relative to video : 83 msStream size : 184 MiB (4%)Language : ItalianLanguage, more info : Clean effectsService kind : Complete MainEncryption : TPS-Crypt or Viaccess
-----------------------------------------------------------------------------------------------------------------------------------------
GeneralID : 1700 (0x6A4)Complete name : F:\Arturo Sandoval part 2.tsFormat : MPEG-TSFile size : 2.99 GiBDuration : 39 min 21 sOverall bit rate mode : VariableOverall bit rate : 10.9 Mb/s
VideoID : 562 (0x232)Menu ID : 14052 (0x36E4)Format : AVCFormat/Info : Advanced Video CodecFormat profile : High@L4Format settings : CABAC / 3 Ref FramesFormat settings, CABAC : YesFormat settings, Reference fra : 3 framesFormat settings, GOP : M=2, N=24Codec ID : 27Duration : 39 min 21 sBit rate : 9 897 kb/sWidth : 1 280 pixelsHeight : 720 pixelsDisplay aspect ratio : 16:9Frame rate : 50.000 FPSStandard : ComponentColor space : YUVChroma subsampling : 4:2:0Bit depth : 8 bitsScan type : ProgressiveBits/(Pixel*Frame) : 0.215Stream size : 2.72 GiB (91%)Encryption : TPS-Crypt or ViaccessColor range : LimitedColor primaries : BT.709Transfer characteristics : BT.709Matrix coefficients : BT.709
AudioID : 565 (0x235)Menu ID : 14052 (0x36E4)Format : AC-3Format/Info : Audio Coding 3Commercial name : Dolby DigitalCodec ID : 6Duration : 39 min 21 sBit rate mode : ConstantBit rate : 448 kb/sChannel(s) : 6 channelsChannel layout : L R C LFE Ls RsSampling rate : 48.0 kHzFrame rate : 31.250 FPS (1536 SPF)Compression mode : LossyDelay relative to video : 83 msStream size : 126 MiB (4%)Language : ItalianLanguage, more info : Clean effectsService kind : Complete MainEncryption : TPS-Crypt or Viaccess

Мои раздачи ®

[url=tracker.php?rid=9539252]http:///forum/tracker.php?rid=9539252[/url]
[ru-zerkalo.org]_t_5825954
Torrent: Registered ·  [ 2019-12-29 05:42 ] ·  15054a868879a2ca5e2434d310812397e3a9259d

19 KB

Status: checked
Completed: 1 times
Size: 7.37 GB
Rating: 
(Votes: 0)
Say thanks: 0  Thanks
 
Похожие темы
[Profile] [PM]
Display posts from previous:    
Reply to topic

The time now is: Today 06:44

All times are GMT + 7 Hours



You cannot post new topics in this forum
You cannot reply to topics in this forum
You cannot edit your posts in this forum
You cannot delete your posts in this forum
You cannot vote in polls in this forum
You cannot attach files in this forum
You can download files in this forum