Register · 
Username: Password:
 ·  Forgot password?

Jowee Omicil "Let\'s BasH" - Europa Jazz Festival 2018 [2018, Contemporary Jazz, HDTV 1080i]

Reply to topic
DL-List and Torrent activity [Update пиров]
Size:  2.16 GB   |    Registered:  1 month 30 days   |    Completed:  1 time

Seeder not seen: 28 days

 
   
 
 
 
Author Message

rychkalov ®

Gender:

Longevity: 6 years 5 months

Posts: 18849

Post 29-Dec-2019 05:42

[Quote]

Jowee Omicil
« Let's BasH »

Europa Jazz Festival 2018
Jazz Tour #6

-
Страна исполнителя: Canada / Haiti / France
Жанр: Contemporary Jazz
Продолжительность: 00:55:34
Год выпуска: 2018
Musicians:
Jowee Omicil - saxophone, flute, clarinet, vocals
Jonathan Jurion - piano, keyboard
Just Wody Cereyon - bass guitar
Conti Bilong - drums
Track List:
- Ballad for Roy Hargrove
- One Note for Miles
- Love & Honesty
- Clarinet Interlude
- Twa Groove
- Pipillita
- Mellow on the Saxo
- Mozart 40th symphony
Доп. информация:
Concert enregistré à l'Abbaye de l'Epau - Le Mans, le vendredi 4 mai 2018, France
Europa Jazz Festival 2018 europajazz.fr
Jowee Omicil Official Site
Огромная Благодарность - [url=profile.php?mode=viewprofile&u=15142747]ssegaster[/url] - за предоставленный материал ...
Спасибо большое !!! Качество: HDTV
Разрешение видео/развертка: 1080i
Контейнер: TS
Видео кодек: H.264
Аудио кодек: MPEG
Видео: 5 037 Kbps, 1920*1080 (16:9), at 25.000 fps, AVC (Component) (High@L4.0) (CABAC / 4 Ref Frames)
Аудио: Russian, 256 Kbps, 48.0 KHz, 2 channels, MPEG Audio (Version 1) (Layer 2)

Отчёт MediaInfo

GeneralID : 1 (0x1)Complete name : C:\_mezzo live HD\mezzo live HD_Jowee Omicil - Europa Jazz Festival 2018.tsFormat : MPEG-TSFile size : 2.16 GiBDuration : 55mn 34sOverall bit rate mode : VariableOverall bit rate : 5 570 Kbps
VideoID : 203 (0xCB)Menu ID : 20103 (0x4E87)Format : AVCFormat/Info : Advanced Video CodecFormat profile : High@L4.0Format settings, CABAC : YesFormat settings, ReFrames : 4 framesCodec ID : 27Duration : 55mn 34sBit rate : 5 037 KbpsWidth : 1 920 pixelsHeight : 1 080 pixelsDisplay aspect ratio : 16:9Frame rate : 25.000 fpsStandard : ComponentColor space : YUVChroma subsampling : 4:2:0Bit depth : 8 bitsScan type : InterlacedScan order : Top Field FirstBits/(Pixel*Frame) : 0.097Stream size : 1.95 GiB (90%)Color primaries : BT.709Transfer characteristics : BT.709Matrix coefficients : BT.709
AudioID : 303 (0x12F)Menu ID : 20103 (0x4E87)Format : MPEG AudioFormat version : Version 1Format profile : Layer 2Codec ID : 3Duration : 55mn 34sBit rate mode : ConstantBit rate : 256 KbpsChannel(s) : 2 channelsSampling rate : 48.0 KHzCompression mode : LossyStream size : 102 MiB (5%)Language : Russian
[ru-zerkalo.org]_t_5823999
Torrent: Registered ·  [ 2019-12-29 05:42 ] ·  d2d20163f8fcd6f4675e646cf5af70ebc70b1d49

11 KB

Status: checked
Completed: 1 times
Size: 2.16 GB
Rating: 
(Votes: 0)
Say thanks: 0  Thanks
 
Похожие темы
[Profile] [PM]
Display posts from previous:    
Reply to topic

The time now is: Today 09:29

All times are GMT + 7 Hours



You cannot post new topics in this forum
You cannot reply to topics in this forum
You cannot edit your posts in this forum
You cannot delete your posts in this forum
You cannot vote in polls in this forum
You cannot attach files in this forum
You can download files in this forum