Register · 
Username: Password:
 ·  Forgot password?

(Italo-Disco, Synth-pop, Disco) [CD] VA - Rare80 Volume 2 (Rare80 Records) (2 CD) - 2012, FLAC (image+.cue), lossless

Reply to topic
DL-List and Torrent activity [Update пиров]
Size:  1.08 GB   |    Registered:  1 month 29 days   |    Completed:  1 time

Seeder not seen: 29 days

 
   
 
 
 
Author Message

Makci ®

Gender:

Longevity: 6 years 4 months

Posts: 12865

Post 29-Dec-2019 10:55

[Quote]

Rare80 Volume 2
Жанр: Italo-Disco, Synth-pop, Disco
Носитель: CD
Страна-производитель диска (релиза): Russia
Год издания: 2012
Издатель (лейбл): Rare80 Records
Номер по каталогу: RA000535
Страна исполнителя (группы): Europe
Аудиокодек: FLAC (*.flac)
Тип рипа: image+.cue
Продолжительность: 1:18:38+1:17:55
Источник: собственный рип
Наличие сканов в содержимом раздачи: нет
Треклист:

CD1

1-1 –Shanghai Ballerina (Club Mix) 5:11
1-2 –Andrea Macho Man (Macho Man Version) 5:23
1-3 –Rewind Rosalie (Pop & Go) (Extended Version) 6:05
1-4 –Buckingham Palace Give Me Your Name (Extended Version) 6:17
1-5 –Palmer Computer Guy (Dance Mix) 6:57
1-6 –Angie Dylan In The Dark (Extended Version) 5:37
1-7 –Alex C Fire (Vocal Version) 5:15
1-8 –Sarah Tokio Town (Extended Geisha-Mix) 5:54
1-9 –Foreign Currency C'est La Vie (Maxi Version) 6:24
1-10 –Sensitiv Burning Emotion (Vocal Version) 6:01
1-11 –Savage Computerized Love (Album Version) 3:38
1-12 –Hands Of Love Dance To Dance (Long Version Mix) 5:45
1-13 –Magic I Wanna Be Your Lover (Extended Version) 5:07
1-14 –Sandy Wilson Gimme Your Love Tonight (Extended Dance Version) 5:12

Лог создания рипа

Exact Audio Copy V1.0 beta 3 from 29. August 2011
Отчёт EAC об извлечении, выполненном 28. декабря 2019, 23:00
Various Artists / Rare80 Volume 2 CD1
Дисковод: TSSTcorpCDDVDW SH-224DB Adapter: 1 ID: 0
Режим чтения : ДостоверностьИспользование точного потока : ДаОтключение кэша аудио : ДаИспользование указателей C2 : Нет
Коррекция смещения при чтении : 6Способность читать области Lead-in и Lead-out : НетЗаполнение пропущенных сэмплов тишиной : ДаУдаление блоков с тишиной в начале и конце : НетПри вычислениях CRC использовались нулевые сэмплы : ДаИнтерфейс : Встроенный Win32-интерфейс для Win NT/2000
Выходной формат : Пользовательский кодировщикВыбранный битрейт : 128 kBit/sКачество : ВысокийДобавление ID3-тега : НетУтилита сжатия : C:\Program Files (x86)\FLAC\flac.exeДополнительные параметры : -V -8 -T "Date=%year%" -T "Genre=%genre%" %source%
TOC извлечённого CD
Трек | Старт | Длительность | Начальный сектор | Конечный сектор --------------------------------------------------------------------- 1 | 0:00.00 | 5:10.29 | 0 | 23278 2 | 5:10.29 | 5:22.65 | 23279 | 47493 3 | 10:33.19 | 6:05.39 | 47494 | 74907 4 | 16:38.58 | 6:16.33 | 74908 | 103140 5 | 22:55.16 | 6:56.36 | 103141 | 134376 6 | 29:51.52 | 5:36.41 | 134377 | 159617 7 | 35:28.18 | 5:15.28 | 159618 | 183270 8 | 40:43.46 | 5:53.35 | 183271 | 209780 9 | 46:37.06 | 6:24.01 | 209781 | 238581 10 | 53:01.07 | 6:01.18 | 238582 | 265674 11 | 59:02.25 | 3:37.74 | 265675 | 282023 12 | 62:40.24 | 5:45.00 | 282024 | 307898 13 | 68:25.24 | 5:00.48 | 307899 | 330446 14 | 73:25.72 | 5:12.38 | 330447 | 353884
Характеристики диапазона извлечения и сообщения об ошибках
Выбранный диапазон
Имя файла C:\EAC\VA - Rare80 Volume 2 - 2012 2CD (Rare80 Records)\CD1\Various Artists - Rare80 Volume 2 CD1.wav
Пиковый уровень 100.0 % Скорость извлечения 3.5 X Качество диапазона 100.0 % CRC теста 944E6A33 CRC копии 944E6A33 Копирование... OK
Ошибок не произошло
AccurateRip: сводка
Трек 1 : извлечено точно (доверие 2) [A1AC3A22] (AR v2)Трек 2 : извлечено точно (доверие 2) [7FE20EC9] (AR v2)Трек 3 : извлечено точно (доверие 2) [25D20E12] (AR v2)Трек 4 : извлечено точно (доверие 2) [066F1228] (AR v2)Трек 5 : извлечено точно (доверие 2) [587E645D] (AR v2)Трек 6 : извлечено точно (доверие 2) [9290425E] (AR v2)Трек 7 : извлечено точно (доверие 2) [59630D9A] (AR v2)Трек 8 : извлечено точно (доверие 1) [5DEC37EA] (AR v2)Трек 9 : извлечено точно (доверие 2) [2F814D45] (AR v2)Трек 10 : извлечено точно (доверие 2) [5164AD5C] (AR v2)Трек 11 : извлечено точно (доверие 2) [EE336686] (AR v2)Трек 12 : извлечено точно (доверие 2) [37208BC2] (AR v2)Трек 13 : извлечено точно (доверие 2) [A9578309] (AR v2)Трек 14 : извлечено точно (доверие 2) [4396DDEE] (AR v2)
Все треки извлечены точно
Конец отчёта
==== Контрольная сумма отчёта 7C6C86C54EABD75652CAE829082A6FB213794246C3960000AC9B3CA328070808 ====

Содержание индексной карты (.CUE)

REM DATE 2012REM DISCID B9126E0EREM COMMENT "ExactAudioCopy v1.0b3"PERFORMER "Various Artists"TITLE "Rare80 Volume 2 CD1"FILE "Various Artists - Rare80 Volume 2 CD1.flac" WAVE TRACK 01 AUDIO TITLE "Ballerina (Club Mix)" PERFORMER "Shanghai" FLAGS DCP INDEX 01 00:00:00 TRACK 02 AUDIO TITLE "Macho Man (Macho Man Version)" PERFORMER "Andrea" FLAGS DCP INDEX 01 05:10:29 TRACK 03 AUDIO TITLE "Rosalie (Pop & Go) (Extended Version)" PERFORMER "Rewind" FLAGS DCP INDEX 01 10:33:19 TRACK 04 AUDIO TITLE "Give Me Your Name (Extended Version)" PERFORMER "Buckingham Palace" FLAGS DCP INDEX 01 16:38:58 TRACK 05 AUDIO TITLE "Computer Guy (Dance Mix)" PERFORMER "Palmer" FLAGS DCP INDEX 01 22:55:16 TRACK 06 AUDIO TITLE "In The Dark (Extended Version)" PERFORMER "Angie Dylan" FLAGS DCP INDEX 01 29:51:52 TRACK 07 AUDIO TITLE "Fire (Vocal Version)" PERFORMER "Alex C" FLAGS DCP INDEX 01 35:28:18 TRACK 08 AUDIO TITLE "Tokio Town (Extended Geisha-Mix)" PERFORMER "Sarah" FLAGS DCP INDEX 01 40:43:46 TRACK 09 AUDIO TITLE "C'est La Vie (Maxi Version)" PERFORMER "Foreign Currency" FLAGS DCP INDEX 01 46:37:06 TRACK 10 AUDIO TITLE "Burning Emotion (Vocal Version)" PERFORMER "Sensitiv" FLAGS DCP INDEX 01 53:01:07 TRACK 11 AUDIO TITLE "Computerized Love (Album Version)" PERFORMER "Savage" FLAGS DCP INDEX 01 59:02:25 TRACK 12 AUDIO TITLE "Dance To Dance (Long Version Mix)" PERFORMER "Hands Of Love" FLAGS DCP INDEX 01 62:40:24 TRACK 13 AUDIO TITLE "I Wanna Be Your Lover (Extended Version)" PERFORMER "Magic" FLAGS DCP INDEX 01 68:25:24 TRACK 14 AUDIO TITLE "Gimme Your Love Tonight (Extended Dance Version)" PERFORMER "Sandy Wilson" FLAGS DCP INDEX 01 73:25:72

CD2

2-1 –Amazone Gino Gino (Extended Mix) 6:46
2-2 –Bazykina Twins Moscow Nights (Extended Version) 6:38
2-3 –New Baccara Talisman (Single Version) 5:54
2-4 –Numero Uno Full Moon In Hong Kong (Album Version) 4:12
2-5 –Electra Cuando Cuando (Single Version) 3:43
2-6 –Shipra Sugar And Spice (Extended Version) 4:57
2-7 –Secret Star I Need A Man (Extended Version) 4:49
2-8 –Kazino Sahara Woman (Maxi Version) 4:13
2-9 –Happy Hour Wie Geht's (Viergeht's Gut Mix) 5:37
2-10 –Paul Mc Douglas Turbo-Geil (Original Maxi Version) 5:46
2-11 –Kermit & Uwe Guten Abend Meine Damen Und Herren (Extended Version) 5:53
2-12 –Garbo Perestroika (Gorbi Dance Mix) 6:54
2-13 –Laser-Cowboys Radioactivity (From The Ucraine) 6:42
2-14 –Modern Trouble Fly To Moscow (Extended Version) 5:43

Лог создания рипа

Exact Audio Copy V1.0 beta 3 from 29. August 2011
Отчёт EAC об извлечении, выполненном 29. декабря 2019, 0:04
Various Artists / Rare80 Volume 2 CD2
Дисковод: TSSTcorpCDDVDW SH-224DB Adapter: 1 ID: 0
Режим чтения : ДостоверностьИспользование точного потока : ДаОтключение кэша аудио : ДаИспользование указателей C2 : Нет
Коррекция смещения при чтении : 6Способность читать области Lead-in и Lead-out : НетЗаполнение пропущенных сэмплов тишиной : ДаУдаление блоков с тишиной в начале и конце : НетПри вычислениях CRC использовались нулевые сэмплы : ДаИнтерфейс : Встроенный Win32-интерфейс для Win NT/2000
Выходной формат : Пользовательский кодировщикВыбранный битрейт : 128 kBit/sКачество : ВысокийДобавление ID3-тега : НетУтилита сжатия : C:\Program Files (x86)\FLAC\flac.exeДополнительные параметры : -V -8 -T "Date=%year%" -T "Genre=%genre%" %source%
TOC извлечённого CD
Трек | Старт | Длительность | Начальный сектор | Конечный сектор --------------------------------------------------------------------- 1 | 0:00.00 | 6:46.21 | 0 | 30470 2 | 6:46.21 | 6:38.02 | 30471 | 60322 3 | 13:24.23 | 5:54.39 | 60323 | 86911 4 | 19:18.62 | 4:15.74 | 86912 | 106110 5 | 23:34.61 | 3:42.66 | 106111 | 122826 6 | 27:17.52 | 4:56.58 | 122827 | 145084 7 | 32:14.35 | 4:48.69 | 145085 | 166753 8 | 37:03.29 | 4:13.10 | 166754 | 185738 9 | 41:16.39 | 5:37.23 | 185739 | 211036 10 | 46:53.62 | 5:46.36 | 211037 | 237022 11 | 52:40.23 | 5:53.57 | 237023 | 263554 12 | 58:34.05 | 6:54.26 | 263555 | 294630 13 | 65:28.31 | 6:41.71 | 294631 | 324776 14 | 72:10.27 | 5:43.71 | 324777 | 350572
Характеристики диапазона извлечения и сообщения об ошибках
Выбранный диапазон
Имя файла C:\EAC\VA - Rare80 Volume 2 - 2012 2CD (Rare80 Records)\CD2\Various Artists - Rare80 Volume 2 CD2.wav
Пиковый уровень 100.0 % Скорость извлечения 3.4 X Качество диапазона 100.0 % CRC теста 166962C4 CRC копии 166962C4 Копирование... OK
Ошибок не произошло
AccurateRip: сводка
Трек 1 : извлечено точно (доверие 2) [ACEF465D] (AR v2)Трек 2 : извлечено точно (доверие 2) [97420142] (AR v2)Трек 3 : извлечено точно (доверие 2) [697D24EC] (AR v2)Трек 4 : извлечено точно (доверие 1) [238FF4F4] (AR v2)Трек 5 : извлечено точно (доверие 3) [FE4B73D6] (AR v2)Трек 6 : извлечено точно (доверие 2) [4B32C3AD] (AR v2)Трек 7 : извлечено точно (доверие 2) [DFBAC1A8] (AR v2)Трек 8 : извлечено точно (доверие 1) [7E6E574A] (AR v2)Трек 9 : извлечено точно (доверие 2) [F86FD44B] (AR v2)Трек 10 : извлечено точно (доверие 2) [1BBD716A] (AR v2)Трек 11 : извлечено точно (доверие 2) [C11B35A6] (AR v2)Трек 12 : извлечено точно (доверие 2) [295D8C5D] (AR v2)Трек 13 : извлечено точно (доверие 2) [E6B20A7C] (AR v2)Трек 14 : извлечено точно (доверие 1) [A755650A] (AR v2)
Все треки извлечены точно
Конец отчёта
==== Контрольная сумма отчёта 818C37EBC103C8CC4A82E6EA4189F920C517914C5EB5EF2727C640B2CA36E2D6 ====

Содержание индексной карты (.CUE)

REM DATE 2012REM DISCID BC12420EREM COMMENT "ExactAudioCopy v1.0b3"PERFORMER "Various Artists"TITLE "Rare80 Volume 2 CD2"FILE "Various Artists - Rare80 Volume 2 CD2.flac" WAVE TRACK 01 AUDIO TITLE "Gino Gino (Extended Mix)" PERFORMER "Amazone" FLAGS DCP INDEX 01 00:00:00 TRACK 02 AUDIO TITLE "Moscow Nights (Extended Version)" PERFORMER "Bazykina Twins" FLAGS DCP INDEX 01 06:46:21 TRACK 03 AUDIO TITLE "Talisman (Single Version)" PERFORMER "New Baccara" FLAGS DCP INDEX 01 13:24:23 TRACK 04 AUDIO TITLE "Full Moon In Hong Kong (Album Version)" PERFORMER "Numero Uno" FLAGS DCP INDEX 01 19:18:62 TRACK 05 AUDIO TITLE "Cuando Cuando (Single Version)" PERFORMER "Electra" FLAGS DCP INDEX 01 23:34:61 TRACK 06 AUDIO TITLE "Sugar And Spice (Extended Version)" PERFORMER "Shipra" FLAGS DCP INDEX 01 27:17:52 TRACK 07 AUDIO TITLE "I Need A Man (Extended Version)" PERFORMER "Secret Star" FLAGS DCP INDEX 01 32:14:35 TRACK 08 AUDIO TITLE "Sahara Woman (Maxi Version)" PERFORMER "Kazino" FLAGS DCP INDEX 01 37:03:29 TRACK 09 AUDIO TITLE "Wie Geht's (Viergeht's Gut Mix)" PERFORMER "Happy Hour" FLAGS DCP INDEX 01 41:16:39 TRACK 10 AUDIO TITLE "Turbo-Geil (Original Maxi Version)" PERFORMER "Paul Mc Douglas" FLAGS DCP INDEX 01 46:53:62 TRACK 11 AUDIO TITLE "Guten Abend Meine Damen Und Herren (Extended Version)" PERFORMER "Kermit & Uwe" FLAGS DCP INDEX 01 52:40:23 TRACK 12 AUDIO TITLE "Perestroika (Gorbi Dance Mix)" PERFORMER "Garbo" FLAGS DCP INDEX 01 58:34:05 TRACK 13 AUDIO TITLE "Radioactivity (From The Ucraine)" PERFORMER "Laser-Cowboys" FLAGS DCP INDEX 01 65:28:31 TRACK 14 AUDIO TITLE "Fly To Moscow (Extended Version)" PERFORMER "Modern Trouble" FLAGS DCP INDEX 01 72:10:27
[ru-zerkalo.org]_t_5827226
Torrent: Registered ·  [ 2019-12-29 10:55 ] ·  3f9a0767be81c53bf2f722fe88ca8cc7c30f8362

12 KB

Status: checked
Completed: 1 times
Size: 1.08 GB
Rating: 
(Votes: 0)
Say thanks: 0  Thanks
 
Похожие темы
[Profile] [PM]
Display posts from previous:    
Reply to topic

The time now is: Today 09:42

All times are GMT + 7 Hours



You cannot post new topics in this forum
You cannot reply to topics in this forum
You cannot edit your posts in this forum
You cannot delete your posts in this forum
You cannot vote in polls in this forum
You cannot attach files in this forum
You can download files in this forum