Register · 
Username: Password:
 ·  Forgot password?

Беглецы / Преследование / Breakaway (Шон Дэш / Sean Dash) [1996, США, Боевик, DVDRip] AVO (Юрий Сербин) + Original Eng

Reply to topic
DL-List and Torrent activity [Update пиров]
Size:  1.47 GB   |    Registered:  1 month 29 days   |    Completed:  1 time

Seeder not seen: 1 month 13 days

 
   
 
 
 
Author Message

FragoMan ®

Gender:

Longevity: 6 years 5 months

Posts: 25184

Post 29-Dec-2019 15:05

[Quote]

Беглецы / Преследование / Breakaway
Страна: США
Жанр: Боевик
Год выпуска: 1996
Продолжительность: 01:31:04
Перевод: Авторский (одноголосый закадровый) Юрий Сербин
Субтитры: нет
Оригинальная аудиодорожка: английский
Режиссер: Шон Дэш / Sean Dash
В ролях: Teri Fruichantie, Джо Эстевес, Тоня Хардинг, Ричард Битти, Брайан Карлтон, Майкл Дэш,
Рэй Дэш, Крис Дероса, Мэрилл Эйхенбергер, Michael Garganese
Описание: Лихая девушка Майра Стайз похищает у мафии огромную сумму денег. По ее следу
посылают наемного убийцу Грэга. Деньги, потерянные во время погони, оказываются у случайной
прохожей Джины Тейлор, за которой тоже начинается охота. Обеим девушкам приходится
вступить в настоящую войну с бандой головорезов.
Доп. информация: Дорожка с Ю. Сербиным синхронизирована и наложена ale_x2008 при помощи Sony Vegas и VirtualDubMod.
За оцифрованную с VHS дорожку благодарим - ALEX150379


Сэмпл: http://yadi.sk/i/pliI0f4ReO536Q
Качество видео: DVDRip
Формат видео: AVI
Видео: XviD build 73, 688x528 (1.30:1), 25 fps, 1906 kbps avg, 0.21 bit/pixel
Аудио: AC3 Dolby Digital, 48000Hz 2/0 (L,R) ch (mono), 192 kbps avg (AVO)
Аудио 2: AC3 Dolby Digital, 48000Hz 2/0 (L,R) ch (stereo), 192 kbps avg (Eng)

MediaInfo

Беглецы (Breakaway) [by ale_x2008].aviFormat : AVIFormat/Info : Audio Video InterleaveFile size : 1.47 GiBDuration : 1 h 31 minOverall bit rate : 2 306 kb/sMovie name : Беглецы (Breakaway) EngDirector : DVDRip by ale_x2008Genre : ActionWriting application : VirtualDubMod 1.5.10.3 (build 2550/release)Original source form/Name : MovieCopyright : Edich2Comment :
VideoID : 0Format : MPEG-4 VisualFormat profile : Advanced Simple@L5Format settings : BVOP1Format settings, BVOP : 1Format settings, QPel : NoFormat settings, GMC : No warppointsFormat settings, Matrix : Default (MPEG)Codec ID : XVIDCodec ID/Hint : XviDDuration : 1 h 31 minBit rate : 1 908 kb/sWidth : 688 pixelsHeight : 528 pixelsDisplay aspect ratio : 4:3Frame rate : 25.000 FPSColor space : YUVChroma subsampling : 4:2:0Bit depth : 8 bitsScan type : ProgressiveCompression mode : LossyBits/(Pixel*Frame) : 0.210Stream size : 1.21 GiB (83%)Writing library : XviD 73
Audio #1ID : 1Format : AC-3Format/Info : Audio Coding 3Codec ID : 2000Duration : 1 h 31 minBit rate mode : ConstantBit rate : 192 kb/sChannel(s) : 2 channelsChannel positions : Front: L RSampling rate : 48.0 kHzFrame rate : 31.250 FPS (1536 SPF)Bit depth : 16 bitsCompression mode : LossyStream size : 125 MiB (8%)Alignment : Split accross interleavesInterleave, duration : 40 ms (1.00 video frame)Interleave, preload duratio : 500 msService kind : Complete Main
Audio #2ID : 2Format : AC-3Format/Info : Audio Coding 3Codec ID : 2000Duration : 1 h 31 minBit rate mode : ConstantBit rate : 192 kb/sChannel(s) : 2 channelsChannel positions : Front: L RSampling rate : 48.0 kHzFrame rate : 31.250 FPS (1536 SPF)Bit depth : 16 bitsCompression mode : LossyStream size : 125 MiB (8%)Alignment : Split accross interleavesInterleave, duration : 40 ms (1.00 video frame)Interleave, preload duratio : 500 msService kind : Complete Main

Скриншоты



[ru-zerkalo.org]_t_5827395
Torrent: Registered ·  [ 2019-12-29 15:05 ] ·  0301005fce244cf471823e74bf9b0bd101273cef

15 KB

Status: checked
Completed: 1 times
Size: 1.47 GB
Rating: 
(Votes: 0)
Say thanks: 0  Thanks
 
Похожие темы
[Profile] [PM]
Display posts from previous:    
Reply to topic

The time now is: Today 09:59

All times are GMT + 7 Hours



You cannot post new topics in this forum
You cannot reply to topics in this forum
You cannot edit your posts in this forum
You cannot delete your posts in this forum
You cannot vote in polls in this forum
You cannot attach files in this forum
You can download files in this forum