Register · 
Username: Password:
 ·  Forgot password?

(Italo-Disco, Euro-Disco) [CD] Heaven42 - The Rhythm Of Love - 2017, FLAC (image+.cue), lossless

Reply to topic
DL-List and Torrent activity [Update пиров]
Size:  435 MB   |    Registered:  1 month 28 days   |    Completed:  0 times

Seeder not seen: Never

 
   
 
 
 
Author Message

Makci ®

Gender:

Longevity: 6 years 4 months

Posts: 12865

Post 31-Dec-2019 11:00

[Quote]

Heaven42 / The Rhythm Of Love
Жанр: Italo-Disco, Euro-Disco
Носитель: CD
Страна-производитель диска (релиза): Poland
Год издания: 2017
Издатель (лейбл): Analog Language
Номер по каталогу: AL9
Страна исполнителя (группы): Russia
Аудиокодек: FLAC (*.flac)
Тип рипа: image+.cue
Продолжительность: 1:02:10
Источник: собственный рип
Наличие сканов в содержимом раздачи: нет
Треклист:
1 Saturday Night 5:59
2 Sinner 6:10
3 Give Me Your Love 6:17
4 Lost In Your Heart 3:52
5 Angels Of The Night 4:23
6 You And Me 3:10
7 Just Tonight (Synthya Remix) 3:46
8 Against The Odds 4:26
9 Midnight Train 4:04
10 I Miss Your Touch 3:42
11 Runaway 4:28
12 Strong To Fight 6:17
13 Dancing And Moving 5:06

Лог создания рипа

Exact Audio Copy V1.0 beta 3 from 29. August 2011
Отчёт EAC об извлечении, выполненном 31. декабря 2019, 0:05
Heaven42 / The Rhythm Of Love
Дисковод: TSSTcorpCDDVDW SH-224DB Adapter: 1 ID: 0
Режим чтения : ДостоверностьИспользование точного потока : ДаОтключение кэша аудио : ДаИспользование указателей C2 : Нет
Коррекция смещения при чтении : 6Способность читать области Lead-in и Lead-out : НетЗаполнение пропущенных сэмплов тишиной : ДаУдаление блоков с тишиной в начале и конце : НетПри вычислениях CRC использовались нулевые сэмплы : ДаИнтерфейс : Встроенный Win32-интерфейс для Win NT/2000
Выходной формат : Пользовательский кодировщикВыбранный битрейт : 128 kBit/sКачество : ВысокийДобавление ID3-тега : НетУтилита сжатия : C:\Program Files (x86)\FLAC\flac.exeДополнительные параметры : -V -8 -T "Date=%year%" -T "Genre=%genre%" %source%
TOC извлечённого CD
Трек | Старт | Длительность | Начальный сектор | Конечный сектор --------------------------------------------------------------------- 1 | 0:00.00 | 6:01.03 | 0 | 27077 2 | 6:01.03 | 6:12.58 | 27078 | 55035 3 | 12:13.61 | 6:19.53 | 55036 | 83513 4 | 18:33.39 | 3:54.22 | 83514 | 101085 5 | 22:27.61 | 4:25.12 | 101086 | 120972 6 | 26:52.73 | 3:12.13 | 120973 | 135385 7 | 30:05.11 | 3:48.27 | 135386 | 152512 8 | 33:53.38 | 4:28.70 | 152513 | 172682 9 | 38:22.33 | 4:06.59 | 172683 | 191191 10 | 42:29.17 | 3:44.12 | 191192 | 208003 11 | 46:13.29 | 4:30.10 | 208004 | 228263 12 | 50:43.39 | 6:19.11 | 228264 | 256699 13 | 57:02.50 | 5:06.39 | 256700 | 279688
Характеристики диапазона извлечения и сообщения об ошибках
Выбранный диапазон
Имя файла C:\EAC\Heaven42 - The Rhythm of Love - 2017 CD\Heaven42 - The Rhythm Of Love.wav
Пиковый уровень 99.0 % Скорость извлечения 7.5 X Качество диапазона 100.0 % CRC теста 2E8D3643 CRC копии 2E8D3643 Копирование... OK
Ошибок не произошло
AccurateRip: сводка
Трек 1 отсутствует в базе данныхТрек 2 отсутствует в базе данныхТрек 3 отсутствует в базе данныхТрек 4 отсутствует в базе данныхТрек 5 отсутствует в базе данныхТрек 6 отсутствует в базе данныхТрек 7 отсутствует в базе данныхТрек 8 отсутствует в базе данныхТрек 9 отсутствует в базе данныхТрек 10 отсутствует в базе данныхТрек 11 отсутствует в базе данныхТрек 12 отсутствует в базе данныхТрек 13 отсутствует в базе данных
Ни одного трека нет в базе AccurateRip
Конец отчёта
==== Контрольная сумма отчёта EE840E46B1195DF54F7DE50B09426AF18E91DAF0B35BA6B515D7AAC2B5568592 ====

Содержание индексной карты (.CUE)

REM DATE 2017REM DISCID A00E910DREM COMMENT "ExactAudioCopy v1.0b3"PERFORMER "Heaven42"TITLE "The Rhythm Of Love"FILE "Heaven42 - The Rhythm Of Love.flac" WAVE TRACK 01 AUDIO TITLE "Saturday Night" PERFORMER "Heaven42" INDEX 01 00:00:00 TRACK 02 AUDIO TITLE "Sinner" PERFORMER "Heaven42" INDEX 00 05:59:03 INDEX 01 06:01:03 TRACK 03 AUDIO TITLE "Give Me Your Love" PERFORMER "Heaven42" INDEX 00 12:11:61 INDEX 01 12:13:61 TRACK 04 AUDIO TITLE "Lost In Your Heart" PERFORMER "Heaven42" INDEX 00 18:31:39 INDEX 01 18:33:39 TRACK 05 AUDIO TITLE "Angels Of The Night" PERFORMER "Heaven42" INDEX 00 22:25:61 INDEX 01 22:27:61 TRACK 06 AUDIO TITLE "You And Me" PERFORMER "Heaven42" INDEX 00 26:50:73 INDEX 01 26:52:73 TRACK 07 AUDIO TITLE "Just Tonight (Synthya Remix)" PERFORMER "Heaven42" INDEX 00 30:03:11 INDEX 01 30:05:11 TRACK 08 AUDIO TITLE "Against The Odds" PERFORMER "Heaven42" INDEX 00 33:51:38 INDEX 01 33:53:38 TRACK 09 AUDIO TITLE "Midnight Train" PERFORMER "Heaven42" INDEX 00 38:20:33 INDEX 01 38:22:33 TRACK 10 AUDIO TITLE "I Miss Your Touch" PERFORMER "Heaven42" INDEX 00 42:27:17 INDEX 01 42:29:17 TRACK 11 AUDIO TITLE "Runaway" PERFORMER "Heaven42" INDEX 00 46:11:29 INDEX 01 46:13:29 TRACK 12 AUDIO TITLE "Strong To Fight" PERFORMER "Heaven42" INDEX 00 50:41:39 INDEX 01 50:43:39 TRACK 13 AUDIO TITLE "Dancing And Moving" PERFORMER "Heaven42" INDEX 00 57:00:50 INDEX 01 57:02:50
[ru-zerkalo.org]_t_5828107
Torrent: Registered ·  [ 2019-12-31 11:00 ] ·  39dd2e2030381aeb7989a70f5b2ea608b81ffe10

18 KB

Status: checked
Completed: 0 times
Size: 435 MB
Rating: 
(Votes: 0)
Say thanks: 0  Thanks
 
Похожие темы
[Profile] [PM]
Display posts from previous:    
Reply to topic

The time now is: Today 08:20

All times are GMT + 7 Hours



You cannot post new topics in this forum
You cannot reply to topics in this forum
You cannot edit your posts in this forum
You cannot delete your posts in this forum
You cannot vote in polls in this forum
You cannot attach files in this forum
You can download files in this forum