Register · 
Username: Password:
 ·  Forgot password?

[SACD-R][OF] Paul Mauriat - Dans Les Yeux D\'Emilie - 1978/2019 (Easy Listening)

Reply to topic
DL-List and Torrent activity [Update пиров]
Size:  1020 MB   |    Registered:  1 month 27 days   |    Completed:  0 times

Seeder not seen: Never

 
   
 
 
 
Author Message

Dimas28 ®

Gender:

Longevity: 6 years 5 months

Posts: 23954

Post 31-Dec-2019 20:29

[Quote]

Paul Mauriat / Dans Les Yeux D'Emilie
Формат записи/Источник записи: [SACD-R][OF]
Наличие водяных знаков: Нет
Год издания/переиздания диска: 1978/2019
Жанр: Easy Listening
Издатель (лейбл): Vocalion
Продолжительность: 01:06:17
Наличие сканов в содержимом раздачи: Только обложка альбома
Треклист:
Dans Les Yeux D'Emilie (1978)
1. Magnolias for Ever (François; Bourtayre; Roda-Gil)
2. J’ai oublié de vivre (Revaux; Billon)
3. Lettre à Hélène (Cywie; Loiseau)
4. How Deep is Your Love (B, R & M Gibb)
5. Fantaisie bleue (Fugain; Lemesle)
6. Mull of Kintyre (McCartney; Laine)
7. Take a Chance on Me (Andersson; Ulvaeus)
8. We are the Champions (Mercury)
9. Dans les yeux d’Emilie (Vallay; Ouazana; Delanoë; Lemesle)
10. (What a) Wonderful World (Cooke; Alpert; Adler)
11. Sur un air de Vivaldi (Velitchansky; Berkousky; Nikitine)
12. O que sera (A flor da terra) (Tu verras) (De Hollanda; Nougaro)
Bonus Tracks
13. Only Yesterday (Carpenter; Bettis)
from HISTOIRE D’O LP FDX 191 (1975) STEREO
14. Don’t Give Up On Us (Macaulay)
from THE MIDNIGHT SOUND OF PAUL MAURIAT LP 6332 331 (1977) STEREO
15. The Jewels of the Madonna Intermezzo (Wolf-Ferrari; Zangarini; Golisciani)
from CONCERT CLASSICS LP FDX 341 (1977) STEREO
16. Eté D’amour (Posit)
from FEELINGS LP FDX 320 (1977) STEREO
17. If it’s Magic (Wonder)
18. Hymne à L’amour (If You Love Me) (Monnot; Piaf; Parsons)
19. Love Me Like a Stranger (Nova flor) (P & M Zan; Avila; Hamilton)
from EVERGREEN LP 9120 215 (1977) STEREO
20. Piano Star (Mauriat) 1st version
PREVIOUSLY UNRELEASED STEREO
Контейнер: ISO (*.iso)
Тип рипа: tracks
Разрядность: 64(2,8 MHz/1 Bit)
Формат: DST64
Количество каналов: 2.0

Лог проверки качества

foobar2000 1.4.8 / Замер динамического диапазона (DR) 1.1.1Дата отчёта: 2019-12-31 14:15:13
--------------------------------------------------------------------------------Анализ: Paul Mauirat / Dans Les Yeux D Emilie--------------------------------------------------------------------------------
DR Пики RMS Продолжительность трека--------------------------------------------------------------------------------DR15 -6.63 дБ -23.80 дБ 3:33 01-Magnolis for EverDR14 -7.81 дБ -24.09 дБ 3:25 02-Jai Oublie de VivreDR13 -7.46 дБ -24.17 дБ 2:31 03-Lettre a HeleneDR14 -8.27 дБ -25.04 дБ 3:03 04-How Deep is Your LoveDR14 -7.99 дБ -24.88 дБ 2:49 05-Fantaisie BleueDR14 -8.38 дБ -25.88 дБ 3:34 06-Mull of KintyreDR15 -7.95 дБ -24.96 дБ 3:27 07-Take a Chance on MeDR13 -8.74 дБ -25.16 дБ 2:46 08-We are the ChampionsDR14 -7.13 дБ -23.79 дБ 3:05 09-Dans Les Yeux d EmilieDR14 -7.78 дБ -24.78 дБ 3:06 10-What a Wounderful WorldDR12 -9.94 дБ -24.75 дБ 3:07 11-Sur un Air de VivaldiDR14 -9.23 дБ -25.32 дБ 3:16 12-O Que Sera A flor da Terra Tu verrasDR12 -7.66 дБ -23.34 дБ 3:25 13-Only YesterdayDR14 -7.64 дБ -25.01 дБ 3:20 14-Dont Give Up On Us BabyDR11 -9.30 дБ -23.56 дБ 3:22 15-Jewels of the MadonnaDR14 -6.23 дБ -23.59 дБ 4:04 16-Ete DamourDR12 -10.53 дБ -25.05 дБ 2:52 17-If Its MagicDR12 -6.14 дБ -23.25 дБ 3:35 18-Hymne a Lamour if you love meDR13 -6.47 дБ -23.34 дБ 3:37 19-Love me Like a Stranger nova florDR14 -6.07 дБ -23.97 дБ 4:18 20-Piano Star 1st version--------------------------------------------------------------------------------
Количество треков: 20Реальные значения DR: DR13
Частота: 2822400 Гц / Частота PCM: 88200 ГцКаналов: 2Разрядность: 1Битрейт: 5645 кбит/сКодек: DST64================================================================================

Скриншот спектра частот

Источник (релизер): http://www.jpc.de/jpcng/poprock/detail/-/art/paul-mauriat-dans-les-yeux-d-emilie...cks/hnum/9484789
[ru-zerkalo.org]_t_5828349
Torrent: Registered ·  [ 2019-12-31 20:29 ] ·  a5fae16ada428f54a2871dbf59214e23849cee5f

11 KB

Status: checked
Completed: 0 times
Size: 1020 MB
Rating: 
(Votes: 0)
Say thanks: 0  Thanks
 
Похожие темы
[Profile] [PM]
Display posts from previous:    
Reply to topic

The time now is: Today 08:55

All times are GMT + 7 Hours



You cannot post new topics in this forum
You cannot reply to topics in this forum
You cannot edit your posts in this forum
You cannot delete your posts in this forum
You cannot vote in polls in this forum
You cannot attach files in this forum
You can download files in this forum