Register · 
Username: Password:
 ·  Forgot password?

[TR24][OF] Silent Generation - Chapter II (EP) (EP) - 2019 (Slamming Deathcore)

Reply to topic
DL-List and Torrent activity [Update пиров]
Size:  165 MB   |    Registered:  1 month 14 days   |    Completed:  0 times

Seeder not seen: Never

 
   
 
 
 
Author Message

ANTON1404 ®

Gender:

Longevity: 6 years 4 months

Posts: 19017

Post 07-Jan-2020 03:01

[Quote]

Silent Generation - Chapter II (EP)- Формат записи/Источник записи: [TR24][OF]
Наличие водяных знаков: Нет
Издание: EP
Год издания/переиздания диска: 2019
Жанр: Slamming Deathcore
Продолжительность: 00:12:33
Наличие сканов в содержимом раздачи: Только обложка альбома
Треклист:
1.Intro 01:15
2.GOTT 02:45
3.Everyday 02:52
4.Don't Bully The Butcher (feat Duncan Bentley) 02:49
5.Swine 02:51
Контейнер: FLAC (*.flac)
Тип рипа: tracks
Разрядность: 24/44,1
Формат: WAV (flac.ape.wv)
Количество каналов: 2.0

Лог проверки качества

foobar2000 1.4.1 / Dynamic Range Meter 1.1.1log date: 2020-01-05 22:16:31
--------------------------------------------------------------------------------Analyzed: Silent Generation / Chapter II--------------------------------------------------------------------------------
DR Peak RMS Duration Track--------------------------------------------------------------------------------DR3 -0.29 dB -5.09 dB 1:15 01-IntroDR4 -0.29 dB -4.62 dB 2:45 02-GOTTDR4 -0.29 dB -4.65 dB 2:52 03-EverydayDR4 -0.29 dB -5.11 dB 2:49 04-Don't Bully The Butcher (feat Duncan Bentley)DR3 -0.29 dB -4.35 dB 2:51 05-Swine--------------------------------------------------------------------------------
Number of tracks: 5Official DR value: DR3
Samplerate: 44100 HzChannels: 2Bits per sample: 24Bitrate: 1818 kbpsCodec: FLAC================================================================================
Источник (релизер): Bandcamp
Спасибо за материал [url=profile.php?mode=viewprofile&u=305450]RounDeviL[/url]-[url=tracker.php?rid=12443263]Мои раздачи[/url]
[url=tracker.php?rid=305450]Раздачи RounDeviL[/url]
[ru-zerkalo.org]_t_5830921
Torrent: Registered ·  [ 2020-01-07 03:01 ] ·  ae53f8dbd5e43c11c1e1e38b8870bb4fb6f38fa3

14 KB

Status: checked
Completed: 0 times
Size: 165 MB
Rating: 
(Votes: 0)
Say thanks: 0  Thanks
 
Похожие темы
[Profile] [PM]
Display posts from previous:    
Reply to topic

The time now is: Today 04:41

All times are GMT + 7 Hours



You cannot post new topics in this forum
You cannot reply to topics in this forum
You cannot edit your posts in this forum
You cannot delete your posts in this forum
You cannot vote in polls in this forum
You cannot attach files in this forum
You can download files in this forum