Register · 
Username: Password:
 ·  Forgot password?

Pink Floyd - Live In Venice [1989/2019, Progressive Rock, Psychedelic, BDRip]

Reply to topic
DL-List and Torrent activity [Update пиров]
Size:  2.16 GB   |    Registered:  1 month 15 days   |    Completed:  2 times

Seeder not seen: 1 month 11 days

 
   
 
 
 
Author Message

Shadow123 ®

Gender:

Longevity: 6 years 5 months

Posts: 15468

Post 13-Jan-2020 02:10

[Quote]

Pink Floyd - Live In Venice
Страна: UK
Жанр: Progressive Rock, Psychedelic
Продолжительность: 01:29:47
Год выпуска: 1989/2019
Качество: BDRip
Источник: http:///forum/viewtopic.php?t=5829661
Контейнер: MKV
Разбивка на главы по трекам: есть
Видео кодек: H.264
Аудио кодек: AC3
Видео: MPEG4 Video (H264) 720x540 23,976fps 3 000 kb/s
Аудио: Dolby AC3 48000Hz stereo 448kbps
Описание:
Концерт проходил на специально сооруженной для этого огромной плавучей сцене прямо на Гранд Канале перед дворцом Дожей перед аудиторией в 200 000 человек (и около 100 миллионов ТВ-зрителей).
Шоу было на грани срыва, когда 13 июля, за два дня до концерта, мэр города внезапно заявил, что громкий звук может нанести серьезный ущерб постройкам. Pink Floyd пришлось уменьшить уровень громкости во время концерта, однако мраморная облицовка во многих местах все же обвалилась. Также было разбито много фонарей, на которые взбирались поклонники, чтобы лучше видеть происходящее на сцене. После себя фанаты оставили около 300 тонн мусора, убирать который пришлось солдатам.
В результате совет города пообещал, что таких концертов в Венеции больше никогда не будет. Председатель комитета по культуре (а позднее вслед за ним и весь комитет) подал в отставку.

Треклист

01. Shine On You Crazy Diamond, Part I
02. Learning To Fly
03. Yet Another Movie
04. Round And Around
05. Sorrow
06. The Dogs Of War
07. On The Turning Away
08. Time
09. The Great Gig In The Sky
10. Wish You Were Here
11. Money
12. Another Brick In The Wall, Part II
13. Comfortably Numb
14. Run Like Hell
15. Fireworks

MediaInfo:

Format : Matroska
Format version : Version 4
File size : 2.16 GiB
Duration : 1 h 29 min
Overall bit rate mode : Variable
Overall bit rate : 3 450 kb/s
Encoded date : UTC 2020-01-04 01:50:55
Writing application : mkvmerge v41.0.0 ('Smarra') 64-bit
Writing library : libebml v1.3.9 + libmatroska v1.5.2
Video
ID : 1
Format : AVC
Format/Info : Advanced Video Codec
Format profile : High@L4.1
Format settings : CABAC / 3 Ref Frames
Format settings, CABAC : Yes
Format settings, Reference : 3 frames
Codec ID : V_MPEG4/ISO/AVC
Duration : 1 h 29 min
Bit rate mode : Variable
Bit rate : 3 000 kb/s
Maximum bit rate : 14.0 Mb/s
Width : 720 pixels
Height : 540 pixels
Display aspect ratio : 4:3
Frame rate mode : Constant
Frame rate : 23.976 (24000/1001) FPS
Color space : YUV
Chroma subsampling : 4:2:0
Bit depth : 8 bits
Scan type : Progressive
Bits/(Pixel*Frame) : 0.322
Stream size : 1.88 GiB (87%)
Writing library : x264 core 157 r2935 545de2f
Encoding settings : cabac=1 / ref=3 / deblock=1:0:0 / analyse=0x3:0x113 / me=hex / subme=7 / psy=1 / psy_rd=1.00:0.00 / mixed_ref=1 / me_range=16 / chroma_me=1 / trellis=1 / 8x8dct=1 / cqm=0 / deadzone=21,11 / fast_pskip=1 / chroma_qp_offset=-2 / threads=17 / lookahead_threads=2 / sliced_threads=0 / slices=4 / nr=0 / decimate=1 / interlaced=0 / bluray_compat=1 / constrained_intra=0 / bframes=3 / b_pyramid=1 / b_adapt=1 / b_bias=0 / direct=1 / weightb=1 / open_gop=1 / weightp=1 / keyint=240 / keyint_min=1 / scenecut=40 / intra_refresh=0 / rc_lookahead=40 / rc=2pass / mbtree=1 / bitrate=3000 / ratetol=1.0 / qcomp=0.60 / qpmin=0 / qpmax=69 / qpstep=4 / cplxblur=20.0 / qblur=0.5 / vbv_maxrate=14000 / vbv_bufsize=14000 / nal_hrd=vbr / filler=0 / ip_ratio=1.40 / aq=1:1.00
Default : Yes
Forced : No
Color range : Limited
Color primaries : BT.709
Transfer characteristics : BT.709
Matrix coefficients : BT.709
Audio
ID : 2
Format : AC-3
Format/Info : Audio Coding 3
Commercial name : Dolby Digital
Codec ID : A_AC3
Duration : 1 h 29 min
Bit rate mode : Constant
Bit rate : 448 kb/s
Channel(s) : 2 channels
Channel layout : L R
Sampling rate : 48.0 kHz
Frame rate : 31.250 FPS (1536 SPF)
Compression mode : Lossy
Stream size : 288 MiB (13%)
Service kind : Complete Main
Default : Yes
Forced : No
Menu
00:00:00.000 : en:Shine On You Crazy Diamond, Part 1
00:02:56.176 : en:Learning To Fly
00:08:30.510 : en:Yet Another Movie
00:14:47.428 : en:Round And Around
00:15:21.462 : en:Sorrow
00:25:00.040 : en:The Dogs Of War
00:32:59.978 : en:On The Turning Away
00:40:29.427 : en:Time
00:46:09.641 : en:The Great Gig In The Sky
00:51:08.065 : en:Wish You Were Here
00:55:42.339 : en:Money
01:04:25.778 : en:Another Brick In The Wall, Part 2
01:09:42.178 : en:Comfortably Numb
01:18:53.395 : en:Run Like Hell
01:26:01.030 : en:Fireworks

Скриншоты

[ru-zerkalo.org]_t_5829024
Torrent: Registered ·  [ 2020-01-13 02:10 ] ·  628418b663643226102119a8486a566d05af3c6e

11 KB

Status: checked
Completed: 2 times
Size: 2.16 GB
Rating: 
(Votes: 0)
Say thanks: 0  Thanks
 
Похожие темы
[Profile] [PM]
Display posts from previous:    
Reply to topic

The time now is: Today 09:35

All times are GMT + 7 Hours



You cannot post new topics in this forum
You cannot reply to topics in this forum
You cannot edit your posts in this forum
You cannot delete your posts in this forum
You cannot vote in polls in this forum
You cannot attach files in this forum
You can download files in this forum