Register · 
Username: Password:
 ·  Forgot password?

(Thrash Metal) [WEB] Suicide Attack - No More Room in Hell - 2020, FLAC (tracks), lossless

Reply to topic
DL-List and Torrent activity [Update пиров]
Size:  356 MB   |    Registered:  1 month 5 days   |    Completed:  0 times

Seeder not seen: Never

 
   
 
 
 
Author Message

FragoMan ®

Gender:

Longevity: 6 years 4 months

Posts: 25034

Post 15-Jan-2020 07:24

[Quote]



Suicide Attack

No More Room in Hell





• Жанр: Thrash Metal
• Носитель: WEB
• Год издания: 2020
• Страна: Netherlands
• Аудиокодек: FLAC (*.flac)
• Тип рипа: tracks
• Продолжительность: 00:48:31
internet
• Наличие сканов: front
Tracklist:
01 - Last Dawn (00:04:13)
02 - Bliss of Death (00:04:26)
03 - Violation (00:05:25)
04 - Recognition (00:04:45)
05 - Extreme Hatred (00:02:47)
06 - Evil Within (00:05:14)
07 - Wake Up (00:04:49)
08 - Extermination (00:02:39)
09 - Perfect Kill (00:05:20)
10 - Yhwh (00:03:28)
11 - War Machine (00:05:21)
-

• Лог DRM •

foobar2000 1.4.2 / Dynamic Range Meter 1.1.1log date: 2020-01-12 16:02:59
--------------------------------------------------------------------------------Analyzed: Suicide Attack / No More Room in Hell--------------------------------------------------------------------------------
DR Peak RMS Duration Track--------------------------------------------------------------------------------DR6 -1.00 dB -7.80 dB 4:13 01-Last DawnDR6 -1.00 dB -7.84 dB 4:26 02-Bliss of DeathDR6 -1.00 dB -8.01 dB 5:25 03-ViolationDR6 -1.00 dB -7.92 dB 4:46 04-RecognitionDR7 -1.00 dB -8.39 dB 2:48 05-Extreme HatredDR6 -1.00 dB -8.10 dB 5:14 06-Evil WithinDR6 -1.00 dB -8.13 dB 4:49 07-Wake UpDR6 -1.00 dB -8.05 dB 2:39 08-ExterminationDR6 -1.00 dB -8.19 dB 5:21 09-Perfect KillDR6 -1.00 dB -7.96 dB 3:29 10-YhwhDR6 -1.00 dB -8.41 dB 5:21 11-War Machine--------------------------------------------------------------------------------
Number of tracks: 11Official DR value: DR6
Samplerate: 44100 HzChannels: 2Bits per sample: 16Bitrate: 993 kbpsCodec: FLAC================================================================================
-

• Лог проверки качества •

-----------------------
DON'T MODIFY THIS FILE
-----------------------
PERFORMER: auCDtect Task Manager, ver. 1.6.0 RC1 build 1.6.0.1Copyright (c) 2008-2010 y-soft. All rights reservedhttp://y-soft.org
ANALYZER: auCDtect: CD records authenticity detector, version 0.8.2Copyright (c) 2004 Oleg Berngardt. All rights reserved.Copyright (c) 2004 Alexander Djourik. All rights reserved.
FILE: Suicide Attack-No More Room in Hell-track11.flac Size: 39926558 Hash: 2E3D10E7E54122926852B73DC0964575 Accuracy: -m8 Conclusion: CDDA 100% Signature: 6B0C0630610D6D14EBE316D0C09ECE891F41B31EFILE: Suicide Attack-No More Room in Hell-track10.flac Size: 26949284 Hash: 03C0768B5415BECA04DD4CABA90B7F28 Accuracy: -m8 Conclusion: CDDA 100% Signature: 3BFC3298CDE9292233295F9D63D18AAC43C43BD6FILE: Suicide Attack-No More Room in Hell-track09.flac Size: 40277151 Hash: 851AD769BA9D33E1359C510C22E0464A Accuracy: -m8 Conclusion: CDDA 100% Signature: 172AB084D46699485C5EA52DD996F4A2E30E2D20FILE: Suicide Attack-No More Room in Hell-track08.flac Size: 20773264 Hash: 8D99AFEA074C3F792EFD0F292E36B543 Accuracy: -m8 Conclusion: CDDA 100% Signature: 6568A17C5F6D689D5D0C6CD417027D9F0F83A750FILE: Suicide Attack-No More Room in Hell-track07.flac Size: 37291047 Hash: 53A606FD1B3C5CB7DD9C4A7139C5E29B Accuracy: -m8 Conclusion: CDDA 100% Signature: 0BEBDBA7AF71767D8163C0D1F77F9899746088AFFILE: Suicide Attack-No More Room in Hell-track06.flac Size: 40127188 Hash: 3886155B416022B858A1A0A0CD2274D3 Accuracy: -m8 Conclusion: CDDA 100% Signature: 485443E0C6200DAFD212AA8740BDAFE272F2CAA7FILE: Suicide Attack-No More Room in Hell-track05.flac Size: 21729466 Hash: A47EE01993DBD964D02D0C1CBC884295 Accuracy: -m8 Conclusion: CDDA 100% Signature: FD4DEC871A9CD737CF17CFAA89AB28ED4B97D048FILE: Suicide Attack-No More Room in Hell-track04.flac Size: 36931530 Hash: 9E5E82EAF11A62273BB05D71055378C6 Accuracy: -m8 Conclusion: CDDA 100% Signature: 22CF30E6571027CA081D15511967538B5270A6B9FILE: Suicide Attack-No More Room in Hell-track03.flac Size: 41796959 Hash: 069EB36677FD78E7CFFD57955BCEC6AD Accuracy: -m8 Conclusion: CDDA 100% Signature: E41F6CBFEA02C9B80C1B4BCA4D90DF98850567F7FILE: Suicide Attack-No More Room in Hell-track02.flac Size: 34568409 Hash: F762AE1669B028FA7CCFBC5CF9620FFC Accuracy: -m8 Conclusion: CDDA 100% Signature: FB8E044E79E7810FACB5B4E8014687F00016FD2AFILE: Suicide Attack-No More Room in Hell-track01.flac Size: 32720733 Hash: 5732DA326C825BDD66E748DF197076E3 Accuracy: -m8 Conclusion: CDDA 100% Signature: 67C92F3B86CDD80B5D14F628E3793EC95206D264
-

• Band •

[img][/img]
(Thrash Metal) [WEB] Suicide Attack - No More Room in Hell - 2020, FLAC (tracks), lossless

Suicide Attack

No More Room in Hell





• Жанр: Thrash Metal
• Носитель: WEB
• Год издания: 2020
• Страна: Netherlands
• Аудиокодек: FLAC (*.flac)
• Тип рипа: tracks
• Продолжительность: 00:48:31
internet
• Наличие сканов: front
Tracklist:
01 - Last Dawn (00:04:13)
02 - Bliss of Death (00:04:26)
03 - Violation (00:05:25)
04 - Recognition (00:04:45)
05 - Extreme Hatred (00:02:47)
06 - Evil Within (00:05:14)
07 - Wake Up (00:04:49)
08 - Extermination (00:02:39)
09 - Perfect Kill (00:05:20)
10 - Yhwh (00:03:28)
11 - War Machine (00:05:21)
-

• Лог DRM •

foobar2000 1.4.2 / Dynamic Range Meter 1.1.1log date: 2020-01-12 16:02:59
--------------------------------------------------------------------------------Analyzed: Suicide Attack / No More Room in Hell--------------------------------------------------------------------------------
DR Peak RMS Duration Track--------------------------------------------------------------------------------DR6 -1.00 dB -7.80 dB 4:13 01-Last DawnDR6 -1.00 dB -7.84 dB 4:26 02-Bliss of DeathDR6 -1.00 dB -8.01 dB 5:25 03-ViolationDR6 -1.00 dB -7.92 dB 4:46 04-RecognitionDR7 -1.00 dB -8.39 dB 2:48 05-Extreme HatredDR6 -1.00 dB -8.10 dB 5:14 06-Evil WithinDR6 -1.00 dB -8.13 dB 4:49 07-Wake UpDR6 -1.00 dB -8.05 dB 2:39 08-ExterminationDR6 -1.00 dB -8.19 dB 5:21 09-Perfect KillDR6 -1.00 dB -7.96 dB 3:29 10-YhwhDR6 -1.00 dB -8.41 dB 5:21 11-War Machine--------------------------------------------------------------------------------
Number of tracks: 11Official DR value: DR6
Samplerate: 44100 HzChannels: 2Bits per sample: 16Bitrate: 993 kbpsCodec: FLAC================================================================================
-

• Лог проверки качества •

-----------------------
DON'T MODIFY THIS FILE
-----------------------
PERFORMER: auCDtect Task Manager, ver. 1.6.0 RC1 build 1.6.0.1Copyright (c) 2008-2010 y-soft. All rights reservedhttp://y-soft.org
ANALYZER: auCDtect: CD records authenticity detector, version 0.8.2Copyright (c) 2004 Oleg Berngardt. All rights reserved.Copyright (c) 2004 Alexander Djourik. All rights reserved.
FILE: Suicide Attack-No More Room in Hell-track11.flac Size: 39926558 Hash: 2E3D10E7E54122926852B73DC0964575 Accuracy: -m8 Conclusion: CDDA 100% Signature: 6B0C0630610D6D14EBE316D0C09ECE891F41B31EFILE: Suicide Attack-No More Room in Hell-track10.flac Size: 26949284 Hash: 03C0768B5415BECA04DD4CABA90B7F28 Accuracy: -m8 Conclusion: CDDA 100% Signature: 3BFC3298CDE9292233295F9D63D18AAC43C43BD6FILE: Suicide Attack-No More Room in Hell-track09.flac Size: 40277151 Hash: 851AD769BA9D33E1359C510C22E0464A Accuracy: -m8 Conclusion: CDDA 100% Signature: 172AB084D46699485C5EA52DD996F4A2E30E2D20FILE: Suicide Attack-No More Room in Hell-track08.flac Size: 20773264 Hash: 8D99AFEA074C3F792EFD0F292E36B543 Accuracy: -m8 Conclusion: CDDA 100% Signature: 6568A17C5F6D689D5D0C6CD417027D9F0F83A750FILE: Suicide Attack-No More Room in Hell-track07.flac Size: 37291047 Hash: 53A606FD1B3C5CB7DD9C4A7139C5E29B Accuracy: -m8 Conclusion: CDDA 100% Signature: 0BEBDBA7AF71767D8163C0D1F77F9899746088AFFILE: Suicide Attack-No More Room in Hell-track06.flac Size: 40127188 Hash: 3886155B416022B858A1A0A0CD2274D3 Accuracy: -m8 Conclusion: CDDA 100% Signature: 485443E0C6200DAFD212AA8740BDAFE272F2CAA7FILE: Suicide Attack-No More Room in Hell-track05.flac Size: 21729466 Hash: A47EE01993DBD964D02D0C1CBC884295 Accuracy: -m8 Conclusion: CDDA 100% Signature: FD4DEC871A9CD737CF17CFAA89AB28ED4B97D048FILE: Suicide Attack-No More Room in Hell-track04.flac Size: 36931530 Hash: 9E5E82EAF11A62273BB05D71055378C6 Accuracy: -m8 Conclusion: CDDA 100% Signature: 22CF30E6571027CA081D15511967538B5270A6B9FILE: Suicide Attack-No More Room in Hell-track03.flac Size: 41796959 Hash: 069EB36677FD78E7CFFD57955BCEC6AD Accuracy: -m8 Conclusion: CDDA 100% Signature: E41F6CBFEA02C9B80C1B4BCA4D90DF98850567F7FILE: Suicide Attack-No More Room in Hell-track02.flac Size: 34568409 Hash: F762AE1669B028FA7CCFBC5CF9620FFC Accuracy: -m8 Conclusion: CDDA 100% Signature: FB8E044E79E7810FACB5B4E8014687F00016FD2AFILE: Suicide Attack-No More Room in Hell-track01.flac Size: 32720733 Hash: 5732DA326C825BDD66E748DF197076E3 Accuracy: -m8 Conclusion: CDDA 100% Signature: 67C92F3B86CDD80B5D14F628E3793EC95206D264
-

• Band •

Jordy Zoethout - Drums (Mortukai, ex-Chaos)
Eelco Klis - Guitars (Bestial Devastation, ex-Mental Illness)
Frans Swaters - Vocals, Guitars (ex-Stigma, ex-X-Tinxion)
Stefan Rijnsburger - Bass (ex-Sobek, ex-Stigma)
-
-
[ru-zerkalo.org]_t_5835193
Torrent: Registered ·  [ 2020-01-15 07:23 ] ·  d9a8423348c3bcb3754ba16294c2d4d9ad157798

15 KB

Status: checked
Completed: 0 times
Size: 356 MB
Rating: 
(Votes: 0)
Say thanks: 0  Thanks
 
Похожие темы
[Profile] [PM]
Display posts from previous:    
Reply to topic

The time now is: Today 04:30

All times are GMT + 7 Hours



You cannot post new topics in this forum
You cannot reply to topics in this forum
You cannot edit your posts in this forum
You cannot delete your posts in this forum
You cannot vote in polls in this forum
You cannot attach files in this forum
You can download files in this forum