Register · 
Username: Password:
 ·  Forgot password?

Двойной расклад / Двойная сделка / Double Deal (Эбби Берлин / Abby Berlin) [1950, США, фильм-нуар, детектив, TVRip] VO (Алексей Багичев)

Reply to topic
DL-List and Torrent activity [Update пиров]
Size:  746 MB   |    Registered:  1 month 3 days   |    Completed:  0 times

Seeder not seen: Never

 
   
 
 
 
Author Message

god56 ®

Gender:

Longevity: 6 years 4 months

Posts: 26204

Post 17-Jan-2020 22:32

[Quote]

Двойной расклад / Double Deal
Страна: США
Студия: Bel-Air Productions Inc.
Жанр: фильм-нуар, детектив
Год выпуска: 1950
Продолжительность: 01:04:36
Перевод: Одноголосый закадровый - Алексей Багичев
Субтитры: нет
Оригинальная аудиодорожка: нет
Режиссер: Эбби Берлин / Abby Berlin
Композитор: Мишель Мишле / Michel Michelet
В ролях: Мари Уиндзор / Marie Windsor ... Terry Miller
Ричард Деннинг / Richard Denning ... Buzz Doyle
Тейлор Холмс / Taylor Holmes ... C.D. «Corpus» Mills
Фэй Бэйкер / Fay Baker ... Lilly Sebastian
Джеймс Гриффит / James Griffith ... Walter Karnes
Карлтон Янг / Carleton Young ... Reno Sebastian
Томас Браун Генри / Thomas Browne Henry ... Sheriff L.G. Morelli
Эдгар Диаринг / Edgar Dearing ... Joe, в титрах не указан
Арт Дюпуа / Art Dupuis ... Hansen, в титрах не указан
Фрэнк Фентон / Frank Fenton ... Pete, в титрах не указан
Джим Хейуорд / Jim Hayward ... Mike - Mecca Bartender, в титрах не указан
Джил Перкинс / Gil Perkins ... Harry, в титрах не указан
Ричард Ривз / Richard Reeves ... Detective Webber, в титрах не указан
Нед Робертс / Ned Roberts ... Wally, в титрах не указан

Описание: Базз Дойл, инженер-нефтяник, приезжает в небольшой городок в поисках работы. Он знакомится с привлекательной молодой женщиной, Терри Миллер, помогая ей разоблачить шулера. Терри и её друг, Рино Себастьян, владелец нефтяного месторождения, нанимают Базза, чтобы тот помог им пробурить скважину. Работа оказывается очень опасной, потому что коварная красавица Лилли, сестра Рино, ненавидит своего брата и изо всех сил пытается испортить ему жизнь...
Доп. информация: У видео плавающий кроп слева.--БОЛЬШОЕ СПАСИБО:
Перевод и озвучивание фильма - Алексей Багичев
Работа со звуком - [url=profile.php?mode=viewprofile&u=42270256]porvaliparus[/url]
--Сэмпл: http://sendfile.su/1541732
Качество видео: TVRip
Формат видео: AVI
Видео: XviD, 608x464 (1.31:1), 23.976 fps, 1414 Kbps
Аудио: AC3, 48.0 KHz, 2 ch., 192 Kbps (русский одноголосый закадровый перевод) - Алексей Багичев

MediaInfo

Общее
Полное имя : F:\РАЗДАЧИ\Double Deal (1950).avi
Формат : AVI
Формат/Информация : Audio Video Interleave
Размер файла : 746 Мбайт
Продолжительность : 1 ч. 4 м.
Общий поток : 1615 Кбит/сек
Программа кодирования : VirtualDubMod 1.5.10.3 | www.virtualdub-fr.org || (build 2550/release)
Библиотека кодирования : VirtualDubMod build 2550/release
Видео
Идентификатор : 0
Формат : MPEG-4 Visual
Профиль формата : Advanced Simple@L5
Параметр BVOP формата : 2
Параметр QPel формата : Нет
Параметр GMC формата : Без точки перехода
Параметр матрицы формата : Default (H.263)
Идентификатор кодека : XVID
Идентификатор кодека/Подсказка : XviD
Продолжительность : 1 ч. 4 м.
Битрейт : 1414 Кбит/сек
Ширина : 608 пикселей
Высота : 464 пикселя
Соотношение сторон : 4:3
Частота кадров : 23,976 (24000/1001) кадра/сек
Цветовое пространство : YUV
Субдискретизация насыщенности : 4:2:0
Битовая глубина : 8 бит
Тип развёртки : Прогрессивная
Метод сжатия : С потерями
Бит/(Пиксели*Кадры) : 0.209
Размер потока : 653 Мбайт (88%)
Библиотека кодирования : XviD 73
Аудио
Идентификатор : 1
Формат : AC-3
Формат/Информация : Audio Coding 3
Параметр Endianness формата : Big
Идентификатор кодека : 2000
Продолжительность : 1 ч. 4 м.
Вид битрейта : Постоянный
Битрейт : 192 Кбит/сек
Каналы : 2 канала
Расположение каналов : Front: L R
Частота : 48,0 КГц
Частота кадров : 31,250 кадров/сек (1536 spf)
Битовая глубина : 16 бит
Метод сжатия : С потерями
Размер потока : 88,7 Мбайт (12%)
Выравнивание : Разделение по промежуткам
Продолжительность промежутка : 42 мс. (1,00 видеокадр)
Время предзагрузки промежутка : 500 мс.
ServiceKind/String : Complete Main
[ru-zerkalo.org]_t_5836694
Torrent: Registered ·  [ 2020-01-17 22:32 ] ·  54f38bee5a98a2f8cda81f5b711df06d7c4f1272

15 KB

Status: checked
Completed: 0 times
Size: 746 MB
Rating: 
(Votes: 0)
Say thanks: 0  Thanks
 
Похожие темы
[Profile] [PM]
Display posts from previous:    
Reply to topic

The time now is: Today 04:34

All times are GMT + 7 Hours



You cannot post new topics in this forum
You cannot reply to topics in this forum
You cannot edit your posts in this forum
You cannot delete your posts in this forum
You cannot vote in polls in this forum
You cannot attach files in this forum
You can download files in this forum