Register · 
Username: Password:
 ·  Forgot password?

[TR24][OF] Atrium Carceri & Cities Last Broadcast - Black Stage Of Night - 2019 (Dark Ambient)

Reply to topic
DL-List and Torrent activity [Update пиров]
Size:  310 MB   |    Registered:  1 month 2 days   |    Completed:  0 times

Seeder not seen: Never

 
   
 
 
 
Author Message

Nestor_13 ®

Gender:

Longevity: 6 years 4 months

Posts: 21727

Post 18-Jan-2020 12:19

[Quote]


Atrium Carceri & Cities Last Broadcast

Black Stage Of Night



• Формат записи | Источник записи: [TR24][OF]
• Наличие водяных знаков: Нет
• Страна-производитель релиза: USA (Oregon)
• Год издания релиза: 2019
• Жанр: Dark Ambient
• Издатель: Cryo Chamber
• Продолжительность: 00:34:53
NT
• WEB bandcamp
• Контейнер: FLAC (*.flac)
• Тип рипа: tracks
• Разрядность: 24/44,1
• Формат: WAV (flac.ape.wv)
• Количество каналов: 2.0
• Наличие сканов: front
Tracklist:
01 - Mind Turns To Night (00:04:16)
02 - Attic And Wormwood (00:03:37)
03 - A Glass Of Sleep For An Elegant Dream (00:03:11)
04 - All Things Nocturnal (00:05:36)
05 - Chaos Unmade (00:05:12)
06 - A New Constellation (00:04:38)
07 - The Great Order Of Things (00:04:48)
08 - Night Becomes Morning (00:03:34)

-

• Замер динамического диапазона •


foobar2000 1.2.5 / Замер динамического диапазона (DR) 1.1.1Дата отчёта: 2019-10-27 13:23:21
--------------------------------------------------------------------------------Анализ: Atrium Carceri & Cities Last Broadcast / Black Stage Of Night--------------------------------------------------------------------------------
DR Пики RMS Продолжительность трека--------------------------------------------------------------------------------DR11 -0.55 дБ -15.03 дБ 4:16 01-Mind Turns To NightDR9 -0.55 дБ -13.52 дБ 3:37 02-Attic And WormwoodDR9 -0.55 дБ -14.20 дБ 3:12 03-A Glass Of Sleep For An Elegant DreamDR7 -0.55 дБ -9.11 дБ 5:36 04-All Things NocturnalDR7 -0.55 дБ -9.40 дБ 5:12 05-Chaos UnmadeDR8 -0.55 дБ -10.31 дБ 4:38 06-A New ConstellationDR8 -0.55 дБ -12.09 дБ 4:48 07-The Great Order Of ThingsDR7 -0.55 дБ -10.53 дБ 3:34 08-Night Becomes Morning--------------------------------------------------------------------------------
Количество треков: 8Реальные значения DR: DR8
Частота: 44100 ГцКаналов: 2Разрядность: 24Битрейт: 1137 кбит/сКодек: FLAC================================================================================
--• Information •
After their acclaimed album Black Corner Den, Atrium Carceri teams up with Cities Last Broadcast once more to bring the 19th century to life.
Meet the bearer of all the keys and protector of the holy order of things. Come and drink your way to an elegant dream.
Black Stage of Night is the result of a year of nightly studio sessions, again in the company of the trustworthy lantern. Two Swedes, separated by the Atlantic Ocean and united in their vision to create an album that invokes the dream state.
”Can you feel it? The mind becomes the attic. High above the murky streets. A window overlooking the great order of things. Here comes the night to warm itself. Chaos unmade. Darkness drawn to the light and kept company. Sleep now or spend the quiet hours by the lantern. It will be lit all night.”
Crooked tape loops combine with piano and acoustic resonances. A melancholic, dusty and timeless album that grows and pulsates.
The CD version comes in a 16 page hard cover deluxe DigiBook with matte lamination. Digital booklet included with download.
released October 22, 2019
Written, Produced, Performed
Simon Heath & Pär Boström
Artwork by Simon Heath
Text by Pär Boström
Mastered by Simon Heath
--
[ru-zerkalo.org]_t_5833958
Torrent: Registered ·  [ 2020-01-18 12:13 ] ·  e0d477b719b9d81ad94f279b5129275bd68ab259

13 KB

Status: checked
Completed: 0 times
Size: 310 MB
Rating: 
(Votes: 0)
Say thanks: 0  Thanks
 
Похожие темы
[Profile] [PM]
Display posts from previous:    
Reply to topic

The time now is: Today 03:52

All times are GMT + 7 Hours



You cannot post new topics in this forum
You cannot reply to topics in this forum
You cannot edit your posts in this forum
You cannot delete your posts in this forum
You cannot vote in polls in this forum
You cannot attach files in this forum
You can download files in this forum