Register · 
Username: Password:
 ·  Forgot password?

[TR24][OF] The New Law - A Bull In The Woods - 2018 (Trip-Hop/Instrumental Hip-Hop/Broken Beat/Psych Hop)

Reply to topic
DL-List and Torrent activity [Update пиров]
Size:  614 MB   |    Registered:  1 month 10 days   |    Completed:  1 time

Seeder not seen: 1 month 9 days

 
   
 
 
 
Author Message

Nestor_13 ®

Gender:

Longevity: 6 years 5 months

Posts: 21816

Post 18-Jan-2020 12:19

[Quote]

-The New Law - A Bull In The Woods- Формат записи/Источник записи: [TR24][OF]
Наличие водяных знаков: Нет
Год издания/переиздания диска: 2018
Жанр: Trip-Hop/Instrumental Hip-Hop/Broken Beat/Psych Hop
Издатель (лейбл): Full Of Nothing
Продолжительность: 00:51:29
Наличие сканов в содержимом раздачи: нет
Треклист:
01. The New Law - Death Another Day (04:29)
02. The New Law - Mask of Abaddon (01:51)
03. The New Law - Lusus Naturae (03:11)
04. The New Law - Daybreak (02:05)
05. The New Law - Mist in Cimmeria (04:48)
06. The New Law - Decade of Rust (03:27)
07. The New Law - Seven Sons (05:41)
08. The New Law - Sang Noir and the Nightbringer (04:41)
09. The New Law - End World (04:46)
10. The New Law - River Runs Red (04:38)
11. The New Law - Into the Open (06:00)
12. The New Law - Wildcat (02:53)
13. The New Law - Medicine Man (02:59)
Контейнер: FLAC (*.flac)
Тип рипа: tracks
Разрядность: 24/44.1
Формат: PCM
Количество каналов: 2.0

Лог проверки качества

foobar2000 1.4.2 / Замер динамического диапазона (DR) 1.1.1Дата отчёта: 2019-12-15 01:24:09
--------------------------------------------------------------------------------Анализ: The New Law / A Bull in the Woods--------------------------------------------------------------------------------
DR Пики RMS Продолжительность трека--------------------------------------------------------------------------------DR6 -0.32 дБ -9.77 дБ 4:29 01-Death Another DayDR4 -0.31 дБ -5.89 дБ 1:51 02-Mask of AbaddonDR5 -0.31 дБ -6.89 дБ 3:11 03-Lusus NaturaeDR7 -0.32 дБ -8.60 дБ 2:05 04-DaybreakDR5 -0.31 дБ -6.75 дБ 4:48 05-Mist in CimmeriaDR6 -0.31 дБ -8.41 дБ 3:27 06-Decade of RustDR5 -0.31 дБ -6.98 дБ 5:41 07-Seven SonsDR4 -0.41 дБ -6.92 дБ 4:41 08-Sang Noir and the NightbringerDR6 -0.32 дБ -8.84 дБ 4:46 09-End WorldDR6 -0.31 дБ -7.89 дБ 4:38 10-River Runs RedDR4 -0.31 дБ -6.87 дБ 6:00 11-Into the OpenDR6 -0.32 дБ -8.82 дБ 2:53 12-WildcatDR5 -0.32 дБ -9.04 дБ 2:59 13-Medicine Man--------------------------------------------------------------------------------
Количество треков: 13Реальные значения DR: DR5
Частота: 44100 ГцКаналов: 2Разрядность: 24Битрейт: 1541 кбит/сКодек: FLAC================================================================================

Скриншот спектра частот



Источник (релизер): http://thenewlaw.bandcamp.com/album/a-bull-in-the-woods-Эту раздачу, равно и любую другую [url=tracker.php?rid=2452270]мою раздачу[/url] в Lossless и Lossy
можно и нужно поглощать без согласования со мной
-
[ru-zerkalo.org]_t_5820603
Torrent: Registered ·  [ 2020-01-18 12:13 ] ·  2d8b834071cd9666708f960635244163ac689365

13 KB

Status: checked
Completed: 1 times
Size: 614 MB
Rating: 
(Votes: 0)
Say thanks: 0  Thanks
 
Похожие темы
[Profile] [PM]
Display posts from previous:    
Reply to topic

The time now is: Today 08:23

All times are GMT + 7 Hours



You cannot post new topics in this forum
You cannot reply to topics in this forum
You cannot edit your posts in this forum
You cannot delete your posts in this forum
You cannot vote in polls in this forum
You cannot attach files in this forum
You can download files in this forum