Register · 
Username: Password:
 ·  Forgot password?

Подделка / Kounterfeit (Джон Мэллори Эшер / John Mallory Asher) [1996, США, Боевик, триллер, криминал, WEB-DLRip] MVO + AVO (П. Карцев) + Original Eng

Reply to topic
DL-List and Torrent activity [Update пиров]
Size:  1.42 GB   |    Registered:  1 month 10 days   |    Completed:  1 time

Seeder not seen: 1 month 9 days

 
   
 
 
 
Author Message

FragoMan ®

Gender:

Longevity: 6 years 5 months

Posts: 25185

Post 18-Jan-2020 19:00

[Quote]

Подделка / Kounterfeit
Страна: США
Жанр: Боевик, триллер, криминал
Год выпуска: 1996
Продолжительность: 01:26:50
Перевод: Профессиональный (многоголосый закадровый)
Перевод 2: Авторский (одноголосый закадровый) Пётр Карцев
Субтитры: нет
Оригинальная аудиодорожка: английский
Режиссер: Джон Мэллори Эшер / John Mallory Asher
В ролях: Джил Бернарди
Корбин Бернсен
Роб Стюарт
Бобби Браун
Эндрю Хоукс
Брюс Пэйн
Элизабет Грэйсен
Джей Ирвин
Марк-Пол Госселаар
Хилари Суэнк
Описание: Два преступника готовы провернуть аферу — обменять три миллиона фальшивых долларов на один настоящий. Но сделка оборачивается кровавой перестрелкой, в которой погибает Дэнни, агент ФБР под прикрытием.
Сестра Дэнни, ставшая свидетельницей убийства, жаждетмести, и вместе с капитаном Эвансом пытается найти преступников, скрывающихся с деньгами. Но ей невдомек, что Эванс имеет свои виды на разыскиваемое богатство…
Доп. информация: За наводку на релиз спасибо arturklop , а также мне за синхрон дорожки http:///forum/viewtopic.php?t=843145 , звуковая дорожка Карцева синхронизирована из каталога Fikaloid
Сэмпл: http://yadi.sk/i/nRhgW9_bbRNOqA
Качество видео: WEB-DLRip (Kounterfeit.1996.1080p.WEB-DL.DD+2.0.x264.)
Формат видео: AVI
Видео: XviD , 720x384 (1.76:1), 23.976 fps, 1 748 kb/s
Аудио: AC3 , 48 kHz , 192.00 kbps avg , 2/0 (MVO)
Аудио 2: AC3 , 48 kHz , 192.00 kbps avg , 2/0(П. Карцев)
Аудио 3: AC3 , 48 kHz , 192.00 kbps avg , 2/0(Eng)

MediaInfo

Complete name Подделка - Kounterfeit 1996(MVO +AVO).aviFormat : AVIFormat/Info : Audio Video InterleaveFile size : 1.42 GiBDuration : 1 h 26 minOverall bit rate : 2 343 kb/sWriting application : VirtualDubMod 1.5.10.3 | www.virtualdub-fr.org || (build 2550/release)Writing library : VirtualDubMod build 2550/release
VideoID : 0Format : MPEG-4 VisualFormat profile : Advanced Simple@L5Format settings : BVOP1 / Custom MatrixFormat settings, BVOP : 1Format settings, QPel : NoFormat settings, GMC : No warppointsFormat settings, Matrix : CustomCodec ID : XVIDCodec ID/Hint : XviDDuration : 1 h 26 minBit rate : 1 748 kb/sWidth : 720 pixelsHeight : 384 pixelsDisplay aspect ratio : 1.85:1Frame rate : 23.976 (24000/1001) FPSColor space : YUVChroma subsampling : 4:2:0Bit depth : 8 bitsScan type : ProgressiveCompression mode : LossyBits/(Pixel*Frame) : 0.264Stream size : 1.06 GiB (75%)Writing library : XviD 73
Audio #1ID : 1Format : AC-3Format/Info : Audio Coding 3Commercial name : Dolby DigitalCodec ID : 2000Duration : 1 h 26 minBit rate mode : ConstantBit rate : 192 kb/sChannel(s) : 2 channelsChannel layout : L RSampling rate : 48.0 kHzFrame rate : 31.250 FPS (1536 SPF)Bit depth : 16 bitsCompression mode : LossyStream size : 119 MiB (8%)Alignment : Aligned on interleavesInterleave, duration : 42 ms (1.00 video frame)Interleave, preload duratio : 512 msService kind : Complete Main
Audio #2ID : 2Format : AC-3Format/Info : Audio Coding 3Commercial name : Dolby DigitalCodec ID : 2000Duration : 1 h 26 minBit rate mode : ConstantBit rate : 192 kb/sChannel(s) : 2 channelsChannel layout : L RSampling rate : 48.0 kHzFrame rate : 31.250 FPS (1536 SPF)Bit depth : 16 bitsCompression mode : LossyStream size : 119 MiB (8%)Alignment : Split across interleavesInterleave, duration : 42 ms (1.00 video frame)Interleave, preload duratio : 500 msService kind : Complete Main
Audio #3ID : 3Format : AC-3Format/Info : Audio Coding 3Commercial name : Dolby DigitalCodec ID : 2000Duration : 1 h 26 minBit rate mode : ConstantBit rate : 192 kb/sChannel(s) : 2 channelsChannel layout : L RSampling rate : 48.0 kHzFrame rate : 31.250 FPS (1536 SPF)Bit depth : 16 bitsCompression mode : LossyStream size : 119 MiB (8%)Alignment : Split across interleavesInterleave, duration : 42 ms (1.00 video frame)Interleave, preload duratio : 500 msService kind : Complete Main

Скриншоты

[ru-zerkalo.org]_t_5837148
Torrent: Registered ·  [ 2020-01-18 19:00 ] ·  73aca4ef943360acd78525db52a55a0caefdd0c6

15 KB

Status: checked
Completed: 1 times
Size: 1.42 GB
Rating: 
(Votes: 0)
Say thanks: 0  Thanks
 
Похожие темы
[Profile] [PM]
Display posts from previous:    
Reply to topic

The time now is: Today 07:27

All times are GMT + 7 Hours



You cannot post new topics in this forum
You cannot reply to topics in this forum
You cannot edit your posts in this forum
You cannot delete your posts in this forum
You cannot vote in polls in this forum
You cannot attach files in this forum
You can download files in this forum