Register · 
Username: Password:
 ·  Forgot password?

[TR24][OF] Dead Prophet - Sounds of Enlightenment (EP) - 2019 (Technical Death Metal)

Reply to topic
DL-List and Torrent activity [Update пиров]
Size:  221 MB   |    Registered:  1 month 1 day   |    Completed:  0 times

Seeder not seen: Never

 
   
 
 
 
Author Message

ANTON1404 ®

Gender:

Longevity: 6 years 4 months

Posts: 19017

Post 20-Jan-2020 02:31

[Quote]

Dead Prophet - Sounds of Enlightenment- Формат записи/Источник записи: [TR24][OF]
Наличие водяных знаков: Нет
Издание: EP
Год издания/переиздания диска: 2019
Жанр: Technical Death Metal
Продолжительность: 00:18:11
Наличие сканов в содержимом раздачи: Только обложка альбома
Треклист:
1.Prelude to Imperfection 01:23
2.Unexpected Suffering 03:13
3.Renunciacion of God 04:19
4.Flakka 03:40
5.Mutilated Waltz 05:35
Контейнер: FLAC (*.flac)
Тип рипа: tracks
Разрядность: 24/44,1
Формат: WAV (flac.ape.wv)
Количество каналов: 2.0

Лог проверки качества

foobar2000 1.4.1 / Dynamic Range Meter 1.1.1log date: 2020-01-19 22:05:00
--------------------------------------------------------------------------------Analyzed: Dead Prophet / Sounds of Enlightenment--------------------------------------------------------------------------------
DR Peak RMS Duration Track--------------------------------------------------------------------------------DR10 -2.04 dB -14.88 dB 1:23 01-Prelude to ImperfectionDR9 -0.51 dB -9.97 dB 3:14 02-Unexpected SufferingDR8 -0.51 dB -10.04 dB 4:19 03-Renunciacion of GodDR8 -0.51 dB -9.60 dB 3:40 04-FlakkaDR9 -0.51 dB -10.86 dB 5:35 05-Mutilated Waltz--------------------------------------------------------------------------------
Number of tracks: 5Official DR value: DR9
Samplerate: 44100 HzChannels: 2Bits per sample: 24Bitrate: 1667 kbpsCodec: FLAC================================================================================

Спасибо за материал [url=profile.php?mode=viewprofile&u=305450]RounDeviL[/url]-[url=tracker.php?rid=12443263]Мои раздачи[/url]
[url=tracker.php?rid=305450]Раздачи RounDeviL[/url]
[ru-zerkalo.org]_t_5837989
Torrent: Registered ·  [ 2020-01-20 02:31 ] ·  897104be3cd31ab6b3a4ffbb459d2f1589b604cf

18 KB

Status: checked
Completed: 0 times
Size: 221 MB
Rating: 
(Votes: 0)
Say thanks: 0  Thanks
 
Похожие темы
[Profile] [PM]
Display posts from previous:    
Reply to topic

The time now is: Today 03:27

All times are GMT + 7 Hours



You cannot post new topics in this forum
You cannot reply to topics in this forum
You cannot edit your posts in this forum
You cannot delete your posts in this forum
You cannot vote in polls in this forum
You cannot attach files in this forum
You can download files in this forum