Register · 
Username: Password:
 ·  Forgot password?

Parquet Courts • Last Call with Carson Daly [2019, Post Punk, Noise Rock, Garage, HDTV, 1080i]

Reply to topic
DL-List and Torrent activity [Update пиров]
Size:  1.27 GB   |    Registered:  29 days   |    Completed:  0 times

Seeder not seen: Never

 
   
 
 
 
Author Message

Nestor_13 ®

Gender:

Longevity: 6 years 4 months

Posts: 21727

Post 23-Jan-2020 04:24

[Quote]


Parquet Courts


Жанр: Post Punk, Noise Rock, Garage
Продолжительность: 00:11:35
Год выпуска: January 23, 2019
Качество: HDTV
Разрешение видео/развертка: 1080i
Контейнер: TS
Видео кодек: MPEG2
Аудио кодек: AC3
Видео: MPEG2 Video 1920x1080 29.97fps 14.5 Mb/s
Аудио: Dolby AC3 48000Hz 6ch 384kbps

Треклист

Almost Had To Start A Fight/In And Out Of Patience
Freebird II
Tenderness
Mardi Gras Beads

Отчёт MediaInfo / BDInfo

GeneralID : 16 (0x10)Complete name : W:\Parquet Courts - Last Call with Carson Daly 2019.tsFormat : MPEG-TSFile size : 1.27 GiBDuration : 11 min 34 sOverall bit rate mode : VariableOverall bit rate : 15.7 Mb/sMovie name : Last Call With Carson DalyLaw rating : N/A
VideoID : 49 (0x31)Menu ID : 1 (0x1)Format : MPEG VideoFormat version : Version 2Format profile : Main@HighFormat settings : CustomMatrix / BVOPFormat settings, BVOP : YesFormat settings, Matrix : CustomFormat settings, GOP : VariableFormat settings, picture struc : FrameCodec ID : 2Duration : 11 min 34 sBit rate mode : VariableBit rate : 14.5 Mb/sMaximum bit rate : 24.0 Mb/sWidth : 1 920 pixelsHeight : 1 080 pixelsDisplay aspect ratio : 16:9Active Format Description : Full frame 16:9 imageFrame rate : 29.970 (30000/1001) FPSColor space : YUVChroma subsampling : 4:2:0Bit depth : 8 bitsScan type : InterlacedScan order : Top Field FirstCompression mode : LossyBits/(Pixel*Frame) : 0.234Time code of first frame : 00:00:00:00Time code source : Group of pictures headerStream size : 1.18 GiB (93%)Writing library : (dvd5: Oct 27 2015)
AudioID : 52 (0x34)Menu ID : 1 (0x1)Format : AC-3Format/Info : Audio Coding 3Commercial name : Dolby DigitalCodec ID : 129Duration : 11 min 34 sBit rate mode : ConstantBit rate : 384 kb/sChannel(s) : 6 channelsChannel layout : L R C LFE Ls RsSampling rate : 48.0 kHzFrame rate : 31.250 FPS (1536 SPF)Compression mode : LossyDelay relative to video : 33 msStream size : 31.8 MiB (2%)Service kind : Complete Main
Мои раздачи ®">

Скриншоты Мои раздачи ®


[url=tracker.php?rid=9539252]http:///forum/tracker.php?rid=9539252[/url]
[ru-zerkalo.org]_t_5837203
Torrent: Registered ·  [ 2020-01-23 04:24 ] ·  7f6ee1339a3eb77e462b45707c18e397ed899159

13 KB

Status: checked
Completed: 0 times
Size: 1.27 GB
Rating: 
(Votes: 0)
Say thanks: 0  Thanks
 
Похожие темы
[Profile] [PM]
Display posts from previous:    
Reply to topic

The time now is: Today 04:29

All times are GMT + 7 Hours



You cannot post new topics in this forum
You cannot reply to topics in this forum
You cannot edit your posts in this forum
You cannot delete your posts in this forum
You cannot vote in polls in this forum
You cannot attach files in this forum
You can download files in this forum