Register · 
Username: Password:
 ·  Forgot password?

[TR24][OF] Wonders Of Nature - Symphony Of Winds (Demo) - 2017 (Atmospheric / Doom Metal)

Reply to topic
DL-List and Torrent activity [Update пиров]
Size:  478 MB   |    Registered:  1 month 5 days   |    Completed:  0 times

Seeder not seen: Never

 
   
 
 
 
Author Message

ANTON1404 ®

Gender:

Longevity: 6 years 5 months

Posts: 19072

Post 23-Jan-2020 14:18

[Quote]

Wonders Of Nature / Symphony Of Winds (Demo)- Дата релиза: April 23, 2017
Жанр: Atmospheric / Doom Metal
Страна исполнителя (группы): Russia, Murmansk, Nikel
Продолжительность: 00:44:12
Наличие сканов: нет
-Источник (релизер): Bandcamp
Авторская раздача-
1. Symphony Of Winds (Demo) (11:16)
2. Symphony Of Winds (Instrumental Demo) (10:56)
3. Symphony Of Winds (Synth Version) (11:03)
4. Slough Of Despond (Instrumental Demo 2016)
(10:58)-Формат записи / Источник записи: [TR24][OF]
Контейнер: FLAC (*.flac)
Тип рипа: tracks
Разрядность: 24bit / 44kHz
Количество каналов: 2.0
Формат: PCM
- -Wonders Of Nature / Symphony Of Winds (Demo) [MP3] (320 kbps)-[url=tracker.php?pid=38812251] [/url]-

DR

foobar2000 1.4.3 / Замер динамического диапазона (DR) 1.1.1Дата отчёта: 2020-01-23 07:11:37
--------------------------------------------------------------------------------Анализ: Wonders Of Nature / Symphony Of Winds (Demo)--------------------------------------------------------------------------------
DR Пики RMS Продолжительность трека--------------------------------------------------------------------------------DR10 -0.42 дБ -13.68 дБ 11:16 01-Symphony Of Winds (Demo)DR14 0.00 дБ -16.29 дБ 10:56 02-Symphony Of Winds (Instrumental Demo)DR11 0.00 дБ -13.83 дБ 11:03 03-Symphony Of Winds (Synth Version)DR10 0.00 дБ -11.95 дБ 10:58 04-Slough Of Despond (Instrumental Demo 2016)--------------------------------------------------------------------------------
Количество треков: 4Реальные значения DR: DR11
Частота: 44100 ГцКаналов: 2Разрядность: 24Битрейт: 1616 кбит/сКодек: FLAC================================================================================

MediaInfo

Общее
Полное имя : C:\Users\Тимофей\Desktop\Wonders Of Nature - Symphony Of Winds (Demo)\1. Symphony Of Winds (Demo).flac
Формат : FLAC
Формат/Информация : Free Lossless Audio Codec
Размер файла : 139 Мбайт
Продолжительность : 11 м. 15 с.
Режим общего битрейта : Переменный
Общий поток : 1724 Кбит/сек
Альбом : Symphony Of Winds (Demo)
Альбом/Исполнитель : Wonders Of Nature
Трек : Symphony Of Winds (Demo)
Трек/Положение : 1
Исполнитель : Wonders Of Nature
Жанр : Atmospheric / Doom Metal
Дата записи : 2017
Обложка : Yes
Тип обложки : Cover (front)
MIME-тип обложки : image/jpeg
Аудио
Формат : FLAC
Формат/Информация : Free Lossless Audio Codec
Продолжительность : 11 м. 15 с.
Вид битрейта : Переменный
Битрейт : 1721 Кбит/сек
Каналы : 2 канала
Channel layout : L R
Частота : 44,1 КГц
Битовая глубина : 24 бит
Метод сжатия : Без потерь
Размер потока : 139 Мбайт (100%)
Библиотека кодирования : libFLAC 1.3.3 (UTC 2019-08-04)
Общее
Полное имя : C:\Users\Тимофей\Desktop\Wonders Of Nature - Symphony Of Winds (Demo)\2. Symphony Of Winds (Instrumental Demo).flac
Формат : FLAC
Формат/Информация : Free Lossless Audio Codec
Размер файла : 132 Мбайт
Продолжительность : 10 м. 56 с.
Режим общего битрейта : Переменный
Общий поток : 1687 Кбит/сек
Альбом : Symphony Of Winds (Demo)
Альбом/Исполнитель : Wonders Of Nature
Трек : Symphony Of Winds (Instrumental Demo)
Трек/Положение : 2
Исполнитель : Wonders Of Nature
Жанр : Atmospheric / Doom Metal
Дата записи : 2017
Обложка : Yes
Тип обложки : Cover (front)
MIME-тип обложки : image/jpeg
Аудио
Формат : FLAC
Формат/Информация : Free Lossless Audio Codec
Продолжительность : 10 м. 56 с.
Вид битрейта : Переменный
Битрейт : 1684 Кбит/сек
Каналы : 2 канала
Channel layout : L R
Частота : 44,1 КГц
Битовая глубина : 24 бит
Метод сжатия : Без потерь
Размер потока : 132 Мбайт (100%)
Библиотека кодирования : libFLAC 1.3.3 (UTC 2019-08-04)
Общее
Полное имя : C:\Users\Тимофей\Desktop\Wonders Of Nature - Symphony Of Winds (Demo)\3. Symphony Of Winds (Synth Version).flac
Формат : FLAC
Формат/Информация : Free Lossless Audio Codec
Размер файла : 78,0 Мбайт
Продолжительность : 11 м. 2 с.
Режим общего битрейта : Переменный
Общий поток : 987 Кбит/сек
Альбом : Symphony Of Winds (Demo)
Альбом/Исполнитель : Wonders Of Nature
Трек : Symphony Of Winds (Synth Version)
Трек/Положение : 3
Исполнитель : Wonders Of Nature
Жанр : Atmospheric / Doom Metal
Дата записи : 2017
Обложка : Yes
Тип обложки : Cover (front)
MIME-тип обложки : image/jpeg
Аудио
Формат : FLAC
Формат/Информация : Free Lossless Audio Codec
Продолжительность : 11 м. 2 с.
Вид битрейта : Переменный
Битрейт : 984 Кбит/сек
Каналы : 2 канала
Channel layout : L R
Частота : 44,1 КГц
Битовая глубина : 24 бит
Метод сжатия : Без потерь
Размер потока : 77,7 Мбайт (100%)
Библиотека кодирования : libFLAC 1.3.3 (UTC 2019-08-04)
Общее
Полное имя : C:\Users\Тимофей\Desktop\Wonders Of Nature - Symphony Of Winds (Demo)\4. Slough Of Despond (Instrumental Demo 2016).flac
Формат : FLAC
Формат/Информация : Free Lossless Audio Codec
Размер файла : 127 Мбайт
Продолжительность : 10 м. 57 с.
Режим общего битрейта : Переменный
Общий поток : 1619 Кбит/сек
Альбом : Symphony Of Winds (Demo)
Альбом/Исполнитель : Wonders Of Nature
Трек : Slough Of Despond (Instrumental Demo 2016)
Трек/Положение : 4
Исполнитель : Wonders Of Nature
Жанр : Atmospheric / Doom Metal
Дата записи : 2017
Обложка : Yes
Тип обложки : Cover (front)
MIME-тип обложки : image/jpeg
Аудио
Формат : FLAC
Формат/Информация : Free Lossless Audio Codec
Продолжительность : 10 м. 57 с.
Вид битрейта : Переменный
Битрейт : 1616 Кбит/сек
Каналы : 2 канала
Channel layout : L R
Частота : 44,1 КГц
Битовая глубина : 24 бит
Метод сжатия : Без потерь
Размер потока : 127 Мбайт (100%)
Библиотека кодирования : libFLAC 1.3.3 (UTC 2019-08-04)
Общее
Полное имя : C:\Users\Тимофей\Desktop\Wonders Of Nature - Symphony Of Winds (Demo)\cover.jpg
Формат : JPEG
Размер файла : 1,98 Мбайт
Изображения
Формат : JPEG
Ширина : 1900 пикселей
Высота : 1900 пикселей
Цветовое пространство : YUV
Субдискретизация насыщенности : 4:4:4
Битовая глубина : 8 бит
Метод сжатия : С потерями
Размер потока : 1,98 Мбайт (100%)
Общее
Полное имя : C:\Users\Тимофей\Desktop\Wonders Of Nature - Symphony Of Winds (Demo)\DR.txt
Размер файла : 1,23 Кбайт

Участники альбома

Евгений Андреев (ThisWhiteSunlight) - Vocals (demo) (track 1), Guitars (rhythm) (track 1, 2), Guitars (solo lead) (track 1, 2, 3)
Вячеслав Молчанов (Кипелов, Sixth Sense) - Guitars (reverb, acoustic, solo 2) (track 1)
Тимофей Бухарин - Keyboards, Programming, Samples, Songwriting (track 1, 2, 3, 4)
Антон Кравченко (Jim Sunweed, De Sangre) - Bass (tracks 1, 2)
Павел Лохнин (ex-КняZz, ex-Dominia, ex-Perimeter, God Eat God) - Drums (tracks 1, 2)
Евгений Столяров, NEMPHIS ART - Artwork, Cover art

Мои раздачи с альбомами WONDERS OF NATURE

Wonders Of Nature / Kola Peninsula II (2019) [TR24][OF] (24bit / 44kHz)
Wonders Of Nature / Kola Peninsula II (2019) [MP3] (320 kbps)
Wonders Of Nature / Wind (Single) (2019) [TR24][OF] (24bit / 44kHz)
Wonders Of Nature / Mysterious Peaks (Remastered) (2019) [MP3]
Wonders Of Nature / Mysterious Peaks (Remastered) [TR24][OF] (24bit / 44kHz)
Wonders Of Nature / Kola Peninsula I (2019) [TR24][OF] (24bit / 44kHz)
Wonders Of Nature / Kola Peninsula I (2019) [MP3] (320 kbps)
Wonders Of Nature / Highland Echoes (2018) [TR24][OF] (24bit / 44kHz)
Wonders Of Nature / Winter Forest (Bonus Edition) (2018) [MP3] (320 kbps)
Wonders Of Nature / Rain (Single) (2017) [TR24][OF] (24bit / 44kHz)
Wonders Of Nature / Symphony Of Winds (Demo) (2017) [MP3] (320 kbps)
Wonders Of Nature / Winter Forest / Legenda Revontulet (Deluxe Edition) (2017) [Lossless] (FLAC (*.flac))
Wonders Of Nature / Mysterious Peaks (2016) [TR24][OF] (24bit / 44kHz)
Wonders Of Nature / Lähde Polar Myrskyt (Compilation) (2016) [TR24][OF] (24bit / 44kHz)
Wonders Of Nature / Norrsken (EP) (2016) [TR24][OF] (24bit / 44kHz)
Wonders Of Nature / Glow Over The Forest (EP) (2016) [TR24][OF] (24bit / 44kHz)
Wonders Of Nature / Winter Forest (2016) [TR24][OF] (24bit / 44kHz)
Wonders Of Nature / Legenda Revontulet (2016) [TR24][OF] (24bit / 44kHz)
Wonders Of Nature / Legenda Revontulet (2016) [Lossless] (FLAC (*.flac))
Wonders Of Nature / Passion For Nature (2015) [TR24][OF] (24bit / 44kHz)
Wonders Of Nature / Passion For Nature (2015) [Lossless] (FLAC (*.flac))
Wonders Of Nature / Official Discography (17 CD) (2015 - 2016) [MP3] (320 kbps)
[ru-zerkalo.org]_t_5839461
Torrent: Registered ·  [ 2020-01-23 14:17 ] ·  a58d6bda7778119abc02a8ca7bc4cadd79b99f3a

20 KB

Status: checked
Completed: 0 times
Size: 478 MB
Rating: 
(Votes: 0)
Say thanks: 0  Thanks
 
Похожие темы
[Profile] [PM]
Display posts from previous:    
Reply to topic

The time now is: Today 06:30

All times are GMT + 7 Hours



You cannot post new topics in this forum
You cannot reply to topics in this forum
You cannot edit your posts in this forum
You cannot delete your posts in this forum
You cannot vote in polls in this forum
You cannot attach files in this forum
You can download files in this forum