Register · 
Username: Password:
 ·  Forgot password?

[TR24][OF] Bad Company - Desolation Angels (40th Anniversary Edition) (2019 Remaster) - 1979/2019 (Classic Rock)

Reply to topic
DL-List and Torrent activity [Update пиров]
Size:  2.51 GB   |    Registered:  1 month 5 days   |    Completed:  0 times

Seeder not seen: Never

 
   
 
 
 
Author Message

ANTON1404 ®

Gender:

Longevity: 6 years 5 months

Posts: 19072

Post 24-Jan-2020 01:43

[Quote]

Bad Company - Desolation Angels (40th Anniversary Edition) (2019 Remaster) Формат записи/Источник записи: [TR24][OF]
Наличие водяных знаков: Нет
Год издания/переиздания диска: 1979/2019
Жанр: Classic Rock
Издатель (лейбл): Rhino Atlantic
Продолжительность: 01:54:48
Наличие сканов в содержимом раздачи: Только обложка альбома
Треклист:
01. Rock 'n' Roll Fantasy (2019 Remaster) (3:20)
02. Crazy Circles (2019 Remaster) (3:36)
03. Gone, Gone, Gone (2019 Remaster) (3:50)
04. Evil Wind (2019 Remaster) (4:22)
05. Early in the Morning (2019 Remaster) (5:48)
06. Lonely for Your Love (2019 Remaster) (3:29)
07. Oh, Atlanta (2019 Remaster) (4:09)
08. Take the Time (2019 Remaster) (4:14)
09. Rhythm Machine (2019 Remaster) (3:48)
10. She Brings Me Love (2019 Remaster) (4:41)
11. Smokin' 45 (Alternative Version 1) (2019 Remaster) (3:36)
12. Smokin' 45 (Alternative Version 2) (2019 Remaster) (3:13)
13. Rock Fever (2019 Remaster) (3:03)
14. Oh, Atlanta (Slow Version with Rhodes; 2019 Remaster) (5:07)
15. Rock 'n' Roll Fantasy (Alternative Version 1; 2019 Remaster) (3:18)
16. Rock 'n' Roll Fantasy (Alternative Version 2; 2019 Remaster) (3:19)
17. Rock 'n' Roll Fantasy (Alternative Version 3; 2019 Remaster) (3:20)
18. Crazy Circles (Alternative Version) (2019 Remaster) (3:33)
19. Gone, Gone, Gone (Alternative Take) (2019 Remaster) (4:08)
20. Early in the Morning (Alternative Version 1; 2019 Remaster) (6:31)
21. Lonely for Your Love (Alternative Version 1) (2019 Remaster) (4:07)
22. Take the Time (Alternative Version 1; 2019 Remaster) (4:14)
23. Evil Wind (Alternative Version) (2019 Remaster) (5:11)
24. Take the Time (Alternative Version 2; 2019 Remaster) (4:15)
25. Lonely for Your Love (Alternative Version 2; 2019 Remaster) (3:34)
26. She Brings Me Love (Alternative Version) (2019 Remaster) (5:23)
27. What Does It Matter (Blues Jam) (2019 Remaster) (2:07)
28. Rhythm Machine (Alternative Version) (2019 Remaster) (3:45)
29. Amen (A cappella) (2019 Remaster) (2:02)
 -Контейнер: FLAC (*.flac)
Тип рипа: tracks
Разрядность: 24/96
Формат: PCM
Количество каналов: 2.0

Лог проверки качества

foobar2000 1.3.7 / Dynamic Range Meter 1.1.1log date: 2020-01-08 14:17:48
--------------------------------------------------------------------------------Analyzed: Bad Company / Desolation Angels (40th Anniversary Edition) (2019 Remaster)--------------------------------------------------------------------------------
DR Peak RMS Duration Track--------------------------------------------------------------------------------DR9 -0.10 dB -9.94 dB 3:20 01-Rock 'n' Roll Fantasy (2019 Remaster)DR9 -0.10 dB -10.32 dB 3:36 02-Crazy Circles (2019 Remaster)DR8 -0.10 dB -9.05 dB 3:50 03-Gone, Gone, Gone (2019 Remaster)DR8 -0.10 dB -9.65 dB 4:22 04-Evil Wind (2019 Remaster)DR9 -0.10 dB -10.38 dB 5:48 05-Early in the Morning (2019 Remaster)DR9 -0.10 dB -9.64 dB 3:29 06-Lonely for Your Love (2019 Remaster)DR9 -0.10 dB -9.77 dB 4:09 07-Oh, Atlanta (2019 Remaster)DR9 -0.10 dB -10.86 dB 4:14 08-Take the Time (2019 Remaster)DR9 -0.10 dB -10.57 dB 3:48 09-Rhythm Machine (2019 Remaster)DR9 -0.10 dB -11.02 dB 4:41 10-She Brings Me Love (2019 Remaster)DR10 -0.10 dB -11.58 dB 3:36 11-Smokin' 45 (Alternative Version 1) (2019 Remaster)DR10 -0.03 dB -10.95 dB 3:13 12-Smokin' 45 (Alternative Version 2) (2019 Remaster)DR9 -0.10 dB -10.96 dB 3:03 13-Rock Fever (2019 Remaster)DR12 -0.05 dB -14.20 dB 5:07 14-Oh, Atlanta (Slow Version with Rhodes; 2019 Remaster)DR10 -0.10 dB -11.03 dB 3:18 15-Rock 'n' Roll Fantasy (Alternative Version 1; 2019 Remaster)DR9 -0.10 dB -10.52 dB 3:19 16-Rock 'n' Roll Fantasy (Alternative Version 2; 2019 Remaster)DR9 -0.20 dB -10.29 dB 3:20 17-Rock 'n' Roll Fantasy (Alternative Version 3; 2019 Remaster)DR9 -0.10 dB -10.15 dB 3:33 18-Crazy Circles (Alternative Version) (2019 Remaster)DR9 -0.10 dB -10.00 dB 4:08 19-Gone, Gone, Gone (Alternative Take) (2019 Remaster)DR9 -0.10 dB -11.07 dB 6:31 20-Early in the Morning (Alternative Version 1; 2019 Remaster)DR10 -0.10 dB -11.19 dB 4:07 21-Lonely for Your Love (Alternative Version 1) (2019 Remaster)DR10 -0.10 dB -11.84 dB 4:14 22-Take the Time (Alternative Version 1; 2019 Remaster)DR10 -0.10 dB -11.96 dB 5:11 23-Evil Wind (Alternative Version) (2019 Remaster)DR11 -0.10 dB -13.27 dB 4:15 24-Take the Time (Alternative Version 2; 2019 Remaster)DR10 -0.10 dB -10.48 dB 3:34 25-Lonely for Your Love (Alternative Version 2; 2019 Remaster)DR10 -0.10 dB -13.43 dB 5:23 26-She Brings Me Love (Alternative Version) (2019 Remaster)DR13 -0.10 dB -16.73 dB 2:07 27-What Does It Matter (Blues Jam) (2019 Remaster)DR10 -0.10 dB -11.35 dB 3:45 28-Rhythm Machine (Alternative Version) (2019 Remaster)DR15 -0.11 dB -18.15 dB 2:02 29-Amen (A cappella) (2019 Remaster)--------------------------------------------------------------------------------
Number of tracks: 29Official DR value: DR10
Samplerate: 96000 HzChannels: 2Bits per sample: 24Bitrate: 2985 kbpsCodec: FLAC================================================================================
Источник: qobuz.com
 -Огромная благодарность за релиз [url=profile.php?mode=viewprofile&u=1540799]strash83[/url]
[ru-zerkalo.org]_t_5839538
Torrent: Registered ·  [ 2020-01-24 01:43 ] ·  4c1bdf067c6857fb193d4329f32db620ea727f4a

16 KB

Status: checked
Completed: 0 times
Size: 2.51 GB
Rating: 
(Votes: 0)
Say thanks: 0  Thanks
 
Похожие темы
[Profile] [PM]
Display posts from previous:    
Reply to topic

The time now is: Today 07:58

All times are GMT + 7 Hours



You cannot post new topics in this forum
You cannot reply to topics in this forum
You cannot edit your posts in this forum
You cannot delete your posts in this forum
You cannot vote in polls in this forum
You cannot attach files in this forum
You can download files in this forum