Register · 
Username: Password:
 ·  Forgot password?

[TR24][OF] Organized Chaos - Divulgence - 2017 (Progressive Metal)

Reply to topic
DL-List and Torrent activity [Update пиров]
Size:  467 MB   |    Registered:  1 month 5 days   |    Completed:  0 times

Seeder not seen: Never

 
   
 
 
 
Author Message

ANTON1404 ®

Gender:

Longevity: 6 years 5 months

Posts: 19072

Post 24-Jan-2020 01:43

[Quote]


Organized Chaos

Divulgence



• Формат записи | Источник записи: [TR24][OF]
• Наличие водяных знаков: Нет
• Страна: Serbia
• Год издания релиза: 2017
• Жанр: Progressive Metal
• Продолжительность: 00:37:24
internet
• WEB ссылка
• Контейнер: FLAC (*.flac)
• Тип рипа: tracks
• Разрядность: 24/48
• Формат: WAV (flac.ape.wv)
• Количество каналов: 2.0
• Наличие сканов: front
Tracklist:
01 - Apex (00:03:04)
02 - Cinnamon (00:05:42)
03 - Ache (feat. Nick Johnston) (00:05:22)
04 - Hide and Seek (00:06:02)
05 - Broken Divine (feat. Richard Henshall from Haken) (00:07:22)
06 - Awake! (00:01:47)
07 - The Mask (feat. Branislava Podrumac) (00:08:02)
-

• Замер динамического диапазона •

foobar2000 1.3.9 / Замер динамического диапазона (DR) 1.1.1Дата отчёта: 2020-01-16 19:53:20
--------------------------------------------------------------------------------Анализ: Organized Chaos / Divulgence--------------------------------------------------------------------------------
DR Пики RMS Продолжительность трека--------------------------------------------------------------------------------DR6 0.00 дБ -9.19 дБ 3:04 01-ApexDR6 0.00 дБ -8.77 дБ 5:43 02-CinnamonDR6 0.00 дБ -8.58 дБ 5:22 03-Ache (feat. Nick Johnston)DR6 0.00 дБ -9.24 дБ 6:03 04-Hide and SeekDR6 0.00 дБ -8.00 дБ 7:22 05-Broken Divine (feat. Richard Henshall from Haken)DR9 0.00 дБ -11.13 дБ 1:47 06-Awake!DR6 0.00 дБ -7.68 дБ 8:03 07-The Mask (feat. Branislava Podrumac)--------------------------------------------------------------------------------
Количество треков: 7Реальные значения DR: DR6
Частота: 48000 ГцКаналов: 2Разрядность: 24Битрейт: 1789 кбит/сКодек: FLAC================================================================================
-
[ru-zerkalo.org]_t_5839521
Torrent: Registered ·  [ 2020-01-24 01:43 ] ·  41baefc560bb4bc32d289d08e0a608eccf3970b6

19 KB

Status: checked
Completed: 0 times
Size: 467 MB
Rating: 
(Votes: 0)
Say thanks: 0  Thanks
 
Похожие темы
[Profile] [PM]
Display posts from previous:    
Reply to topic

The time now is: Today 07:03

All times are GMT + 7 Hours



You cannot post new topics in this forum
You cannot reply to topics in this forum
You cannot edit your posts in this forum
You cannot delete your posts in this forum
You cannot vote in polls in this forum
You cannot attach files in this forum
You can download files in this forum