Register · 
Username: Password:
 ·  Forgot password?

[TR24][OF] Fennec On Fire - Stuck In The Desert - 2018 (Hard Rock)

Reply to topic
DL-List and Torrent activity [Update пиров]
Size:  372 MB   |    Registered:  1 month 5 days   |    Completed:  0 times

Seeder not seen: Never

 
   
 
 
 
Author Message

ANTON1404 ®

Gender:

Longevity: 6 years 5 months

Posts: 19072

Post 24-Jan-2020 01:43

[Quote]


Fennec On Fire

Stuck In The Desert



• Формат записи | Источник записи: [TR24][OF]
• Наличие водяных знаков: Нет
• Страна: Denmark
• Год издания релиза: 2018
• Жанр: Hard Rock
• Продолжительность: 00:32:11
internet
• WEB ссылка
• Контейнер: FLAC (*.flac)
• Тип рипа: tracks
• Разрядность: 24/44,1
• Формат: WAV (flac.ape.wv)
• Количество каналов: 2.0
• Наличие сканов: front
Tracklist:
01 - Search for the Unknown (00:04:23)
02 - Inner Beast (00:03:22)
03 - Choice in Life (00:03:16)
04 - Seaside (00:04:24)
05 - Dance with the President (00:04:00)
06 - King of a New Revolution (00:04:00)
07 - Circus of Dimension (00:04:04)
08 - Future Boy (00:04:39)
-

• Замер динамического диапазона •

foobar2000 1.3.9 / Замер динамического диапазона (DR) 1.1.1Дата отчёта: 2020-01-16 18:16:44
--------------------------------------------------------------------------------Анализ: Fennec On Fire / Stuck In The Desert--------------------------------------------------------------------------------
DR Пики RMS Продолжительность трека--------------------------------------------------------------------------------DR6 -0.11 дБ -7.85 дБ 4:23 01-Search for the UnknownDR5 -0.40 дБ -7.29 дБ 3:23 02-Inner BeastDR6 -0.38 дБ -7.59 дБ 3:16 03-Choice in LifeDR5 -0.37 дБ -7.22 дБ 4:24 04-SeasideDR4 -0.40 дБ -5.86 дБ 4:01 05-Dance with the PresidentDR5 -0.30 дБ -7.12 дБ 4:01 06-King of a New RevolutionDR7 -0.33 дБ -8.63 дБ 4:04 07-Circus of DimensionDR7 -0.14 дБ -8.14 дБ 4:39 08-Future Boy--------------------------------------------------------------------------------
Количество треков: 8Реальные значения DR: DR6
Частота: 44100 ГцКаналов: 2Разрядность: 24Битрейт: 1688 кбит/сКодек: FLAC================================================================================
-
[ru-zerkalo.org]_t_5839494
Torrent: Registered ·  [ 2020-01-24 01:43 ] ·  765050df563a0ecf0924f9c6b3bfb146258ea9bd

15 KB

Status: checked
Completed: 0 times
Size: 372 MB
Rating: 
(Votes: 0)
Say thanks: 0  Thanks
 
Похожие темы
[Profile] [PM]
Display posts from previous:    
Reply to topic

The time now is: Today 08:39

All times are GMT + 7 Hours



You cannot post new topics in this forum
You cannot reply to topics in this forum
You cannot edit your posts in this forum
You cannot delete your posts in this forum
You cannot vote in polls in this forum
You cannot attach files in this forum
You can download files in this forum