Register · 
Username: Password:
 ·  Forgot password?

[TR24][OF] Revolution Saints - Rise - 2019 (Melodic Hard Rock)

Reply to topic
DL-List and Torrent activity [Update пиров]
Size:  616 MB   |    Registered:  1 month 4 days   |    Completed:  1 time

Seeder not seen: 20 days

 
   
 
 
 
Author Message

ANTON1404 ®

Gender:

Longevity: 6 years 5 months

Posts: 19072

Post 24-Jan-2020 14:33

[Quote]

Revolution Saints - Rise- Формат / Источник записи: [TR24][OF]
Наличие водяных знаков: Нет
Год издания: 2020-01-24
Жанр: Melodic Hard Rock
Издатель-лейбл: Frontiers Records S.R.L.
Продолжительность: 00:51:31
Наличие сканов: Нет
Контейнер: FLAC (*.flac)
Тип рипа: tracks
Разрядность: 24/44.1
Формат: PCM
Количество каналов: 2.0
Источник: интернет

Треклист:
01. When the Heartache Has Gone (4:41)
02. Price We Pay (4:15)
03. Rise (3:55)
04. Coming Home (4:39)
05. Closer (4:09)
06. Higher (5:08)
07. Talk to Me (4:19)
08. It's Not the End (It's Just the Beginning) (5:04)
09. Million Miles (3:28)
10. Win or Lose (4:01)
11. Eyes of a Child (3:33)
12. Talk to Me (Deen's Vocal Version) (Bonus Track) (4:19)

Лог проверки качества

foobar2000 1.5 / Замер динамического диапазона (DR) 1.1.1Дата отчёта: 2020-01-24 08:02:29
--------------------------------------------------------------------------------Анализ: Revolution Saints / Rise--------------------------------------------------------------------------------
DR Пики RMS Продолжительность трека--------------------------------------------------------------------------------DR9 -0.50 дБ -10.06 дБ 4:41 01-When the Heartache Has GoneDR9 -0.50 дБ -10.68 дБ 4:15 02-Price We PayDR8 -0.50 дБ -10.12 дБ 3:55 03-RiseDR9 -0.50 дБ -11.14 дБ 4:39 04-Coming HomeDR10 -0.50 дБ -12.27 дБ 4:09 05-CloserDR9 -0.50 дБ -10.62 дБ 5:08 06-HigherDR9 -0.50 дБ -10.80 дБ 4:19 07-Talk to MeDR9 -0.50 дБ -10.81 дБ 5:04 08-It's Not the End (It's Just the Beginning)DR9 -0.50 дБ -10.94 дБ 3:28 09-Million MilesDR9 -0.50 дБ -10.44 дБ 4:01 10-Win or LoseDR10 -1.05 дБ -14.01 дБ 3:33 11-Eyes of a ChildDR9 -0.50 дБ -10.77 дБ 4:19 12-Talk to Me (Deen's Vocal Version) (Bonus Track)--------------------------------------------------------------------------------
Количество треков: 12Реальные значения DR: DR9
Частота: 44100 ГцКаналов: 2Разрядность: 24Битрейт: 1622 кбит/сКодек: FLAC================================================================================
[ru-zerkalo.org]_t_5840067
Torrent: Registered ·  [ 2020-01-24 14:33 ] ·  52381e692a8ae1ca2669a7171f771998400b5432

13 KB

Status: checked
Completed: 1 times
Size: 616 MB
Rating: 
(Votes: 0)
Say thanks: 0  Thanks
 
Похожие темы
[Profile] [PM]
Display posts from previous:    
Reply to topic

The time now is: Today 07:31

All times are GMT + 7 Hours



You cannot post new topics in this forum
You cannot reply to topics in this forum
You cannot edit your posts in this forum
You cannot delete your posts in this forum
You cannot vote in polls in this forum
You cannot attach files in this forum
You can download files in this forum