Register · 
Username: Password:
 ·  Forgot password?

[TR24][OF] Wonders Of Nature - Winter Forest / Legenda Revontulet (Deluxe Edition) - 2017 (Ambient / Atmospheric Black / Instrumental)

Reply to topic
DL-List and Torrent activity [Update пиров]
Size:  1.5 GB   |    Registered:  1 month 4 days   |    Completed:  0 times

Seeder not seen: Never

 
   
 
 
 
Author Message

ANTON1404 ®

Gender:

Longevity: 6 years 5 months

Posts: 19072

Post 24-Jan-2020 14:33

[Quote]

Wonders Of Nature / Winter Forest / Legenda Revontulet (Deluxe Edition)- Дата релиза: April 27, 2017
Жанр: Ambient / Atmospheric Black / Instrumental
Страна исполнителя (группы): Russia, Murmansk, Nikel
Издатель (лейбл): In The Morningside Records
Страна-производитель диска (релиза)
: Spain
Номер по каталогу: MORNING 026
Продолжительность: 02:28:29
Наличие сканов: нет
-Источник (релизер) I: Bandcamp
Источник (релизер) II: Discogs
Авторская раздача-
1. Aurora Borealis (05:59)
2. Winter Forest (12:28)
3. Winter Twilight (10:22)
4. At The Turn Of Last Winter (07:03)
5. Moonlight In The Winter Forest (12:29)
6. Winter Stars (05:18)
7. Talvi Tuli (02:08)
8. Legenda Revontulet (07:16)
9. Twilight Metsässä Yöllä (05:27)
10. The First Beauty (Lustre Cover) (06:05)
11. Medley (05:39)
12. Abstract I (01:42)
13. Abstract II (01:43)
14. Abstract III (03:10)
15. Abstract IV (03:12)
16. Tides Of Oneiric Darkness (07:15)
17. The Darkest Desire (04:48)
18. Forest Covered With Haze (06:32)
19. Forest Never Speak (05:22)
20. Forest Never Wake Up (07:09)
21. I Lost In The Darkness Of The Forest (03:24)
22. Gaia (Tiamat Cover) (Demo Version) (06:30)
23. Yekteníya 1 (Batushka Synth Cover Version) (05:23)
24. Ea, Lord Of The Depths (Burzum Synth Cover Version) (04:55)
25. Legenda Revontulet (Ravenblood Cover Version) (Bonus Track) (07:09)
-Формат записи / Источник записи: [TR24][OF]
Контейнер: FLAC (*.flac)
Тип рипа: tracks
Разрядность: 24bit / 44kHz
Количество каналов: 2.0
Формат: PCM
- -Wonders Of Nature / Winter Forest (Bonus Edition) (2018) [TR24][OF] (24bit / 44kHz)
Wonders Of Nature / Winter Forest (Bonus Edition) (2018) [MP3] (320 kbps)
Wonders Of Nature / Winter Forest / Legenda Revontulet (Deluxe Edition) (2017) [Lossless] (FLAC (*.flac))
Wonders Of Nature / Winter Forest (2016) [TR24][OF] (24bit / 44kHz)
Wonders Of Nature / Legenda Revontulet (2016) [TR24][OF] (24bit / 44kHz)
Wonders Of Nature / Legenda Revontulet (2016) [Lossless] (FLAC (*.flac))-[url=tracker.php?pid=38812251] [/url]-

DR

foobar2000 1.4.3 / Замер динамического диапазона (DR) 1.1.1Дата отчёта: 2020-01-24 05:23:04
--------------------------------------------------------------------------------Анализ: Wonders Of Nature / Winter Forest / Legenda Revontulet (Deluxe Edition)--------------------------------------------------------------------------------
DR Пики RMS Продолжительность трека--------------------------------------------------------------------------------DR6 -2.34 дБ -11.05 дБ 5:59 01-Aurora BorealisDR8 0.00 дБ -9.08 дБ 12:28 02-Winter ForestDR7 -3.40 дБ -11.34 дБ 10:22 03-Winter TwilightDR10 -1.00 дБ -14.59 дБ 7:03 04-At The Turn Of Last WinterDR9 0.00 дБ -10.23 дБ 12:29 05-Moonlight In The Winter ForestDR9 -3.28 дБ -14.63 дБ 5:18 06-Winter StarsDR7 -4.39 дБ -13.69 дБ 2:08 07-Talvi TuliDR6 -1.00 дБ -9.01 дБ 7:16 08-Legenda RevontuletDR10 -1.04 дБ -13.64 дБ 5:27 09-Twilight Metsässä YölläDR9 -1.00 дБ -12.63 дБ 6:05 10-The First Beauty (Lustre Cover)DR10 -0.02 дБ -13.44 дБ 5:39 11-MedleyDR12 0.00 дБ -15.23 дБ 1:42 12-Abstract IDR6 0.00 дБ -8.93 дБ 1:43 13-Abstract IIDR7 0.00 дБ -9.47 дБ 3:10 14-Abstract IIIDR10 -0.66 дБ -13.88 дБ 3:12 15-Abstract IVDR7 0.00 дБ -8.76 дБ 7:15 16-Tides Of Oneiric DarknessDR8 0.00 дБ -10.25 дБ 4:48 17-The Darkest DesireDR11 -0.46 дБ -17.18 дБ 6:32 18-Forest Covered With HazeDR6 -1.03 дБ -9.91 дБ 5:22 19-Forest Never SpeakDR10 -10.70 дБ -22.78 дБ 7:09 20-Forest Never Wake UpDR8 -0.63 дБ -11.80 дБ 3:24 21-I Lost In The Darkness Of The ForestDR10 -2.13 дБ -14.20 дБ 6:30 22-Gaia (Tiamat Cover) (Demo Version)DR7 0.00 дБ -9.20 дБ 5:23 23-Yekteníya 1 (Batushka Synth Cover Version)DR9 0.00 дБ -13.40 дБ 4:55 24-Ea, Lord Of The Depths (Burzum Synth Cover Version)DR8 0.00 дБ -10.21 дБ 7:09 25-Legenda Revontulet (Ravenblood Cover Version) (Bonus Track)--------------------------------------------------------------------------------
Количество треков: 25Реальные значения DR: DR8
Частота: 44100 ГцКаналов: 2Разрядность: 24Битрейт: 1679 кбит/сКодек: FLAC================================================================================

MediaInfo

Общее
Полное имя : E:\Раздачи\Wonders Of Nature\Wonders Of Nature - Winter Forest, Legenda Revontulet (Deluxe Edition) (2017) [24-44.1]\08. Legenda Revontulet.flac
Формат : FLAC
Формат/Информация : Free Lossless Audio Codec
Размер файла : 91,5 Мбайт
Продолжительность : 7 м. 16 с.
Режим общего битрейта : Переменный
Общий поток : 1761 Кбит/сек
Альбом : Winter Forest / Legenda Revontulet (Deluxe Edition)
Альбом/Исполнитель : Wonders Of Nature
Часть : 1
Трек : Legenda Revontulet
Трек/Положение : 8
Исполнитель : Wonders Of Nature
Жанр : Ambient / Atmospheric Black / Instrumental
Дата записи : 2017
Обложка : Yes
Тип обложки : Cover (front)
MIME-тип обложки : image/jpeg
Аудио
Формат : FLAC
Формат/Информация : Free Lossless Audio Codec
Продолжительность : 7 м. 16 с.
Вид битрейта : Переменный
Битрейт : 1759 Кбит/сек
Каналы : 2 канала
Channel layout : L R
Частота : 44,1 КГц
Битовая глубина : 24 бит
Метод сжатия : Без потерь
Размер потока : 91,4 Мбайт (100%)
Библиотека кодирования : libFLAC 1.3.0 (UTC 2013-05-26)
Общее
Полное имя : E:\Раздачи\Wonders Of Nature\Wonders Of Nature - Winter Forest, Legenda Revontulet (Deluxe Edition) (2017) [24-44.1]\09. Twilight Metsässä Yöllä.flac
Формат : FLAC
Формат/Информация : Free Lossless Audio Codec
Размер файла : 55,6 Мбайт
Продолжительность : 5 м. 26 с.
Режим общего битрейта : Переменный
Общий поток : 1428 Кбит/сек
Альбом : Winter Forest / Legenda Revontulet (Deluxe Edition)
Альбом/Исполнитель : Wonders Of Nature
Часть : 1
Трек : Twilight Metsässä Yöllä
Трек/Положение : 9
Исполнитель : Wonders Of Nature
Жанр : Ambient / Atmospheric Black / Instrumental
Дата записи : 2017
Обложка : Yes
Тип обложки : Cover (front)
MIME-тип обложки : image/jpeg
Аудио
Формат : FLAC
Формат/Информация : Free Lossless Audio Codec
Продолжительность : 5 м. 26 с.
Вид битрейта : Переменный
Битрейт : 1425 Кбит/сек
Каналы : 2 канала
Channel layout : L R
Частота : 44,1 КГц
Битовая глубина : 24 бит
Метод сжатия : Без потерь
Размер потока : 55,5 Мбайт (100%)
Библиотека кодирования : libFLAC 1.3.0 (UTC 2013-05-26)
Общее
Полное имя : E:\Раздачи\Wonders Of Nature\Wonders Of Nature - Winter Forest, Legenda Revontulet (Deluxe Edition) (2017) [24-44.1]\10. The First Beauty (Lustre Cover).flac
Формат : FLAC
Формат/Информация : Free Lossless Audio Codec
Размер файла : 72,9 Мбайт
Продолжительность : 6 м. 5 с.
Режим общего битрейта : Переменный
Общий поток : 1675 Кбит/сек
Альбом : Winter Forest / Legenda Revontulet (Deluxe Edition)
Альбом/Исполнитель : Wonders Of Nature
Часть : 1
Трек : The First Beauty (Lustre Cover)
Трек/Положение : 10
Исполнитель : Wonders Of Nature
Жанр : Ambient / Atmospheric Black / Instrumental
Дата записи : 2017
Обложка : Yes
Тип обложки : Cover (front)
MIME-тип обложки : image/jpeg
Аудио
Формат : FLAC
Формат/Информация : Free Lossless Audio Codec
Продолжительность : 6 м. 5 с.
Вид битрейта : Переменный
Битрейт : 1672 Кбит/сек
Каналы : 2 канала
Channel layout : L R
Частота : 44,1 КГц
Битовая глубина : 24 бит
Метод сжатия : Без потерь
Размер потока : 72,8 Мбайт (100%)
Библиотека кодирования : libFLAC 1.3.0 (UTC 2013-05-26)
Общее
Полное имя : E:\Раздачи\Wonders Of Nature\Wonders Of Nature - Winter Forest, Legenda Revontulet (Deluxe Edition) (2017) [24-44.1]\11. Medley.flac
Формат : FLAC
Формат/Информация : Free Lossless Audio Codec
Размер файла : 64,4 Мбайт
Продолжительность : 5 м. 39 с.
Режим общего битрейта : Переменный
Общий поток : 1593 Кбит/сек
Альбом : Winter Forest / Legenda Revontulet (Deluxe Edition)
Альбом/Исполнитель : Wonders Of Nature
Часть : 2
Трек : Medley
Трек/Положение : 11
Исполнитель : Wonders Of Nature
Жанр : Ambient / Atmospheric Black / Instrumental
Дата записи : 2017
Обложка : Yes
Тип обложки : Cover (front)
MIME-тип обложки : image/jpeg
Аудио
Формат : FLAC
Формат/Информация : Free Lossless Audio Codec
Продолжительность : 5 м. 39 с.
Вид битрейта : Переменный
Битрейт : 1590 Кбит/сек
Каналы : 2 канала
Channel layout : L R
Частота : 44,1 КГц
Битовая глубина : 24 бит
Метод сжатия : Без потерь
Размер потока : 64,3 Мбайт (100%)
Библиотека кодирования : libFLAC 1.3.0 (UTC 2013-05-26)
Общее
Полное имя : E:\Раздачи\Wonders Of Nature\Wonders Of Nature - Winter Forest, Legenda Revontulet (Deluxe Edition) (2017) [24-44.1]\12. Abstract I.flac
Формат : FLAC
Формат/Информация : Free Lossless Audio Codec
Размер файла : 18,4 Мбайт
Продолжительность : 1 м. 42 с.
Режим общего битрейта : Переменный
Общий поток : 1506 Кбит/сек
Альбом : Winter Forest / Legenda Revontulet (Deluxe Edition)
Альбом/Исполнитель : Wonders Of Nature
Часть : 2
Трек : Abstract I
Трек/Положение : 12
Исполнитель : Wonders Of Nature
Жанр : Ambient / Atmospheric Black / Instrumental
Дата записи : 2017
Обложка : Yes
Тип обложки : Cover (front)
MIME-тип обложки : image/jpeg
Аудио
Формат : FLAC
Формат/Информация : Free Lossless Audio Codec
Продолжительность : 1 м. 42 с.
Вид битрейта : Переменный
Битрейт : 1496 Кбит/сек
Каналы : 2 канала
Channel layout : L R
Частота : 44,1 КГц
Битовая глубина : 24 бит
Метод сжатия : Без потерь
Размер потока : 18,3 Мбайт (99%)
Библиотека кодирования : libFLAC 1.3.0 (UTC 2013-05-26)
Общее
Полное имя : E:\Раздачи\Wonders Of Nature\Wonders Of Nature - Winter Forest, Legenda Revontulet (Deluxe Edition) (2017) [24-44.1]\13. Abstract II.flac
Формат : FLAC
Формат/Информация : Free Lossless Audio Codec
Размер файла : 21,8 Мбайт
Продолжительность : 1 м. 43 с.
Режим общего битрейта : Переменный
Общий поток : 1775 Кбит/сек
Альбом : Winter Forest / Legenda Revontulet (Deluxe Edition)
Альбом/Исполнитель : Wonders Of Nature
Часть : 2
Трек : Abstract II
Трек/Положение : 13
Исполнитель : Wonders Of Nature
Жанр : Ambient / Atmospheric Black / Instrumental
Дата записи : 2017
Обложка : Yes
Тип обложки : Cover (front)
MIME-тип обложки : image/jpeg
Аудио
Формат : FLAC
Формат/Информация : Free Lossless Audio Codec
Продолжительность : 1 м. 43 с.
Вид битрейта : Переменный
Битрейт : 1765 Кбит/сек
Каналы : 2 канала
Channel layout : L R
Частота : 44,1 КГц
Битовая глубина : 24 бит
Метод сжатия : Без потерь
Размер потока : 21,7 Мбайт (99%)
Библиотека кодирования : libFLAC 1.3.0 (UTC 2013-05-26)
Общее
Полное имя : E:\Раздачи\Wonders Of Nature\Wonders Of Nature - Winter Forest, Legenda Revontulet (Deluxe Edition) (2017) [24-44.1]\14. Abstract III.flac
Формат : FLAC
Формат/Информация : Free Lossless Audio Codec
Размер файла : 34,3 Мбайт
Продолжительность : 3 м. 10 с.
Режим общего битрейта : Переменный
Общий поток : 1515 Кбит/сек
Альбом : Winter Forest / Legenda Revontulet (Deluxe Edition)
Альбом/Исполнитель : Wonders Of Nature
Часть : 2
Трек : Abstract III
Трек/Положение : 14
Исполнитель : Wonders Of Nature
Жанр : Ambient / Atmospheric Black / Instrumental
Дата записи : 2017
Обложка : Yes
Тип обложки : Cover (front)
MIME-тип обложки : image/jpeg
Аудио
Формат : FLAC
Формат/Информация : Free Lossless Audio Codec
Продолжительность : 3 м. 10 с.
Вид битрейта : Переменный
Битрейт : 1510 Кбит/сек
Каналы : 2 канала
Channel layout : L R
Частота : 44,1 КГц
Битовая глубина : 24 бит
Метод сжатия : Без потерь
Размер потока : 34,2 Мбайт (100%)
Библиотека кодирования : libFLAC 1.3.0 (UTC 2013-05-26)
Общее
Полное имя : E:\Раздачи\Wonders Of Nature\Wonders Of Nature - Winter Forest, Legenda Revontulet (Deluxe Edition) (2017) [24-44.1]\15. Abstract IV.flac
Формат : FLAC
Формат/Информация : Free Lossless Audio Codec
Размер файла : 35,8 Мбайт
Продолжительность : 3 м. 11 с.
Режим общего битрейта : Переменный
Общий поток : 1565 Кбит/сек
Альбом : Winter Forest / Legenda Revontulet (Deluxe Edition)
Альбом/Исполнитель : Wonders Of Nature
Часть : 2
Трек : Abstract IV
Трек/Положение : 15
Исполнитель : Wonders Of Nature
Жанр : Ambient / Atmospheric Black / Instrumental
Дата записи : 2017
Обложка : Yes
Тип обложки : Cover (front)
MIME-тип обложки : image/jpeg
Аудио
Формат : FLAC
Формат/Информация : Free Lossless Audio Codec
Продолжительность : 3 м. 11 с.
Вид битрейта : Переменный
Битрейт : 1560 Кбит/сек
Каналы : 2 канала
Channel layout : L R
Частота : 44,1 КГц
Битовая глубина : 24 бит
Метод сжатия : Без потерь
Размер потока : 35,7 Мбайт (100%)
Библиотека кодирования : libFLAC 1.3.0 (UTC 2013-05-26)
Общее
Полное имя : E:\Раздачи\Wonders Of Nature\Wonders Of Nature - Winter Forest, Legenda Revontulet (Deluxe Edition) (2017) [24-44.1]\16. Tides Of Oneiric Darkness.flac
Формат : FLAC
Формат/Информация : Free Lossless Audio Codec
Размер файла : 79,8 Мбайт
Продолжительность : 7 м. 15 с.
Режим общего битрейта : Переменный
Общий поток : 1538 Кбит/сек
Альбом : Winter Forest / Legenda Revontulet (Deluxe Edition)
Альбом/Исполнитель : Wonders Of Nature
Часть : 2
Трек : Tides Of Oneiric Darkness
Трек/Положение : 16
Исполнитель : Wonders Of Nature
Жанр : Ambient / Atmospheric Black / Instrumental
Дата записи : 2017
Обложка : Yes
Тип обложки : Cover (front)
MIME-тип обложки : image/jpeg
Аудио
Формат : FLAC
Формат/Информация : Free Lossless Audio Codec
Продолжительность : 7 м. 15 с.
Вид битрейта : Переменный
Битрейт : 1536 Кбит/сек
Каналы : 2 канала
Channel layout : L R
Частота : 44,1 КГц
Битовая глубина : 24 бит
Метод сжатия : Без потерь
Размер потока : 79,7 Мбайт (100%)
Библиотека кодирования : libFLAC 1.3.0 (UTC 2013-05-26)
Общее
Полное имя : E:\Раздачи\Wonders Of Nature\Wonders Of Nature - Winter Forest, Legenda Revontulet (Deluxe Edition) (2017) [24-44.1]\17. The Darkest Desire.flac
Формат : FLAC
Формат/Информация : Free Lossless Audio Codec
Размер файла : 56,7 Мбайт
Продолжительность : 4 м. 48 с.
Режим общего битрейта : Переменный
Общий поток : 1652 Кбит/сек
Альбом : Winter Forest / Legenda Revontulet (Deluxe Edition)
Альбом/Исполнитель : Wonders Of Nature
Часть : 2
Трек : The Darkest Desire
Трек/Положение : 17
Исполнитель : Wonders Of Nature
Жанр : Ambient / Atmospheric Black / Instrumental
Дата записи : 2017
Обложка : Yes
Аудио
Формат : FLAC
Формат/Информация : Free Lossless Audio Codec
Продолжительность : 4 м. 48 с.
Вид битрейта : Переменный
Битрейт : 1648 Кбит/сек
Каналы : 2 канала
Channel layout : L R
Частота : 44,1 КГц
Битовая глубина : 24 бит
Метод сжатия : Без потерь
Размер потока : 56,6 Мбайт (100%)
Библиотека кодирования : libFLAC 1.3.3 (UTC 2019-08-04)
Общее
Полное имя : E:\Раздачи\Wonders Of Nature\Wonders Of Nature - Winter Forest, Legenda Revontulet (Deluxe Edition) (2017) [24-44.1]\18. Forest Covered With Haze.flac
Формат : FLAC
Формат/Информация : Free Lossless Audio Codec
Размер файла : 61,9 Мбайт
Продолжительность : 6 м. 32 с.
Режим общего битрейта : Переменный
Общий поток : 1324 Кбит/сек
Альбом : Winter Forest / Legenda Revontulet (Deluxe Edition)
Альбом/Исполнитель : Wonders Of Nature
Часть : 2
Трек : Forest Covered With Haze
Трек/Положение : 18
Исполнитель : Wonders Of Nature
Жанр : Ambient / Atmospheric Black / Instrumental
Дата записи : 2017
Обложка : Yes
Аудио
Формат : FLAC
Формат/Информация : Free Lossless Audio Codec
Продолжительность : 6 м. 32 с.
Вид битрейта : Переменный
Битрейт : 1322 Кбит/сек
Каналы : 2 канала
Channel layout : L R
Частота : 44,1 КГц
Битовая глубина : 24 бит
Метод сжатия : Без потерь
Размер потока : 61,8 Мбайт (100%)
Библиотека кодирования : libFLAC 1.3.3 (UTC 2019-08-04)
Общее
Полное имя : E:\Раздачи\Wonders Of Nature\Wonders Of Nature - Winter Forest, Legenda Revontulet (Deluxe Edition) (2017) [24-44.1]\19. Forest Never Speak.flac
Формат : FLAC
Формат/Информация : Free Lossless Audio Codec
Размер файла : 55,9 Мбайт
Продолжительность : 5 м. 22 с.
Режим общего битрейта : Переменный
Общий поток : 1455 Кбит/сек
Альбом : Winter Forest / Legenda Revontulet (Deluxe Edition)
Альбом/Исполнитель : Wonders Of Nature
Часть : 2
Трек : Forest Never Speak
Трек/Положение : 19
Исполнитель : Wonders Of Nature
Жанр : Ambient / Atmospheric Black / Instrumental
Дата записи : 2017
Обложка : Yes
Аудио
Формат : FLAC
Формат/Информация : Free Lossless Audio Codec
Продолжительность : 5 м. 22 с.
Вид битрейта : Переменный
Битрейт : 1452 Кбит/сек
Каналы : 2 канала
Channel layout : L R
Частота : 44,1 КГц
Битовая глубина : 24 бит
Метод сжатия : Без потерь
Размер потока : 55,8 Мбайт (100%)
Библиотека кодирования : libFLAC 1.3.3 (UTC 2019-08-04)
Общее
Полное имя : E:\Раздачи\Wonders Of Nature\Wonders Of Nature - Winter Forest, Legenda Revontulet (Deluxe Edition) (2017) [24-44.1]\20. Forest Never Wake Up.flac
Формат : FLAC
Формат/Информация : Free Lossless Audio Codec
Размер файла : 69,0 Мбайт
Продолжительность : 7 м. 8 с.
Режим общего битрейта : Переменный
Общий поток : 1350 Кбит/сек
Альбом : Winter Forest / Legenda Revontulet (Deluxe Edition)
Альбом/Исполнитель : Wonders Of Nature
Часть : 2
Трек : Forest Never Wake Up
Трек/Положение : 20
Исполнитель : Wonders Of Nature
Жанр : Ambient / Atmospheric Black / Instrumental
Дата записи : 2017
Обложка : Yes
Аудио
Формат : FLAC
Формат/Информация : Free Lossless Audio Codec
Продолжительность : 7 м. 8 с.
Вид битрейта : Переменный
Битрейт : 1348 Кбит/сек
Каналы : 2 канала
Channel layout : L R
Частота : 44,1 КГц
Битовая глубина : 24 бит
Метод сжатия : Без потерь
Размер потока : 68,9 Мбайт (100%)
Библиотека кодирования : libFLAC 1.3.3 (UTC 2019-08-04)
Общее
Полное имя : E:\Раздачи\Wonders Of Nature\Wonders Of Nature - Winter Forest, Legenda Revontulet (Deluxe Edition) (2017) [24-44.1]\21. I Lost In The Darkness Of The Forest.flac
Формат : FLAC
Формат/Информация : Free Lossless Audio Codec
Размер файла : 36,0 Мбайт
Продолжительность : 3 м. 24 с.
Режим общего битрейта : Переменный
Общий поток : 1479 Кбит/сек
Альбом : Winter Forest / Legenda Revontulet (Deluxe Edition)
Альбом/Исполнитель : Wonders Of Nature
Часть : 2
Трек : I Lost In The Darkness Of The Forest
Трек/Положение : 21
Исполнитель : Wonders Of Nature
Жанр : Ambient / Atmospheric Black / Instrumental
Дата записи : 2017
Обложка : Yes
Аудио
Формат : FLAC
Формат/Информация : Free Lossless Audio Codec
Продолжительность : 3 м. 24 с.
Вид битрейта : Переменный
Битрейт : 1474 Кбит/сек
Каналы : 2 канала
Channel layout : L R
Частота : 44,1 КГц
Битовая глубина : 24 бит
Метод сжатия : Без потерь
Размер потока : 35,9 Мбайт (100%)
Библиотека кодирования : libFLAC 1.3.3 (UTC 2019-08-04)
Общее
Полное имя : E:\Раздачи\Wonders Of Nature\Wonders Of Nature - Winter Forest, Legenda Revontulet (Deluxe Edition) (2017) [24-44.1]\22. Gaia (Tiamat Cover) (Demo Version).flac
Формат : FLAC
Формат/Информация : Free Lossless Audio Codec
Размер файла : 80,9 Мбайт
Продолжительность : 6 м. 29 с.
Режим общего битрейта : Переменный
Общий поток : 1741 Кбит/сек
Альбом : Winter Forest / Legenda Revontulet (Deluxe Edition)
Альбом/Исполнитель : Wonders Of Nature
Часть : 2
Трек : Gaia (Tiamat Cover) (Demo Version)
Трек/Положение : 22
Исполнитель : Wonders Of Nature
Жанр : Ambient / Atmospheric Black / Instrumental
Дата записи : 2017
Обложка : Yes
Тип обложки : Cover (front)
MIME-тип обложки : image/png
Аудио
Формат : FLAC
Формат/Информация : Free Lossless Audio Codec
Продолжительность : 6 м. 29 с.
Вид битрейта : Переменный
Битрейт : 1726 Кбит/сек
Каналы : 2 канала
Channel layout : L R
Частота : 44,1 КГц
Битовая глубина : 24 бит
Метод сжатия : Без потерь
Размер потока : 80,2 Мбайт (99%)
Библиотека кодирования : libFLAC 1.3.3 (UTC 2019-08-04)
Общее
Полное имя : E:\Раздачи\Wonders Of Nature\Wonders Of Nature - Winter Forest, Legenda Revontulet (Deluxe Edition) (2017) [24-44.1]\23. Yekteníya 1 (Batushka Synth Cover Version).flac
Формат : FLAC
Формат/Информация : Free Lossless Audio Codec
Размер файла : 70,2 Мбайт
Продолжительность : 5 м. 23 с.
Режим общего битрейта : Переменный
Общий поток : 1822 Кбит/сек
Альбом : Winter Forest / Legenda Revontulet (Deluxe Edition)
Альбом/Исполнитель : Wonders Of Nature
Часть : 2
Трек : Yekteníya 1 (Batushka Synth Cover Version)
Трек/Положение : 23
Исполнитель : Wonders Of Nature
Жанр : Ambient / Atmospheric Black / Instrumental
Дата записи : 2017
Обложка : Yes
Аудио
Формат : FLAC
Формат/Информация : Free Lossless Audio Codec
Продолжительность : 5 м. 23 с.
Вид битрейта : Переменный
Битрейт : 1819 Кбит/сек
Каналы : 2 канала
Channel layout : L R
Частота : 44,1 КГц
Битовая глубина : 24 бит
Метод сжатия : Без потерь
Размер потока : 70,1 Мбайт (100%)
Библиотека кодирования : libFLAC 1.3.3 (UTC 2019-08-04)
Общее
Полное имя : E:\Раздачи\Wonders Of Nature\Wonders Of Nature - Winter Forest, Legenda Revontulet (Deluxe Edition) (2017) [24-44.1]\24. Ea, Lord Of The Depths (Burzum Synth Cover Version).flac
Формат : FLAC
Формат/Информация : Free Lossless Audio Codec
Размер файла : 51,0 Мбайт
Продолжительность : 4 м. 54 с.
Режим общего битрейта : Переменный
Общий поток : 1453 Кбит/сек
Альбом : Winter Forest / Legenda Revontulet (Deluxe Edition)
Альбом/Исполнитель : Wonders Of Nature
Часть : 2
Трек : Ea, Lord Of The Depths (Burzum Synth Cover Version)
Трек/Положение : 24
Исполнитель : Wonders Of Nature
Жанр : Ambient / Atmospheric Black / Instrumental
Дата записи : 2017
Обложка : Yes
Аудио
Формат : FLAC
Формат/Информация : Free Lossless Audio Codec
Продолжительность : 4 м. 54 с.
Вид битрейта : Переменный
Битрейт : 1450 Кбит/сек
Каналы : 2 канала
Channel layout : L R
Частота : 44,1 КГц
Битовая глубина : 24 бит
Метод сжатия : Без потерь
Размер потока : 50,9 Мбайт (100%)
Библиотека кодирования : libFLAC 1.3.3 (UTC 2019-08-04)
Общее
Полное имя : E:\Раздачи\Wonders Of Nature\Wonders Of Nature - Winter Forest, Legenda Revontulet (Deluxe Edition) (2017) [24-44.1]\25. Legenda Revontulet (Ravenblood Cover Version) (Bonus Track).flac
Формат : FLAC
Формат/Информация : Free Lossless Audio Codec
Размер файла : 86,0 Мбайт
Продолжительность : 7 м. 9 с.
Режим общего битрейта : Переменный
Общий поток : 1682 Кбит/сек
Альбом : Winter Forest / Legenda Revontulet (Deluxe Edition)
Альбом/Исполнитель : Wonders Of Nature
Часть : 2
Трек : Legenda Revontulet (Ravenblood Cover Version) (Bonus Track)
Трек/Положение : 25
Исполнитель : Wonders Of Nature
Жанр : Ambient / Atmospheric Black / Instrumental
Дата записи : 2017
Обложка : Yes
Аудио
Формат : FLAC
Формат/Информация : Free Lossless Audio Codec
Продолжительность : 7 м. 9 с.
Вид битрейта : Переменный
Битрейт : 1679 Кбит/сек
Каналы : 2 канала
Channel layout : L R
Частота : 44,1 КГц
Битовая глубина : 24 бит
Метод сжатия : Без потерь
Размер потока : 85,9 Мбайт (100%)
Библиотека кодирования : libFLAC 1.3.3 (UTC 2019-08-04)
Общее
Полное имя : E:\Раздачи\Wonders Of Nature\Wonders Of Nature - Winter Forest, Legenda Revontulet (Deluxe Edition) (2017) [24-44.1]\01. Aurora Borealis.flac
Формат : FLAC
Формат/Информация : Free Lossless Audio Codec
Размер файла : 40,7 Мбайт
Продолжительность : 5 м. 59 с.
Режим общего битрейта : Переменный
Общий поток : 952 Кбит/сек
Альбом : Winter Forest / Legenda Revontulet (Deluxe Edition)
Альбом/Исполнитель : Wonders Of Nature
Часть : 1
Трек : Aurora Borealis
Трек/Положение : 1
Исполнитель : Wonders Of Nature
Жанр : Ambient / Atmospheric Black / Instrumental
Дата записи : 2017
Обложка : Yes
Тип обложки : Cover (front)
MIME-тип обложки : image/png
Аудио
Формат : FLAC
Формат/Информация : Free Lossless Audio Codec
Продолжительность : 5 м. 59 с.
Вид битрейта : Переменный
Битрейт : 935 Кбит/сек
Каналы : 2 канала
Channel layout : L R
Частота : 44,1 КГц
Битовая глубина : 24 бит
Метод сжатия : Без потерь
Размер потока : 40,0 Мбайт (98%)
Библиотека кодирования : libFLAC 1.3.2 (UTC 2017-01-01)
Общее
Полное имя : E:\Раздачи\Wonders Of Nature\Wonders Of Nature - Winter Forest, Legenda Revontulet (Deluxe Edition) (2017) [24-44.1]\02. Winter Forest.flac
Формат : FLAC
Формат/Информация : Free Lossless Audio Codec
Размер файла : 165 Мбайт
Продолжительность : 12 м. 28 с.
Режим общего битрейта : Переменный
Общий поток : 1846 Кбит/сек
Альбом : Winter Forest / Legenda Revontulet (Deluxe Edition)
Альбом/Исполнитель : Wonders Of Nature
Часть : 1
Трек : Winter Forest
Трек/Положение : 2
Исполнитель : Wonders Of Nature
Жанр : Ambient / Atmospheric Black / Instrumental
Дата записи : 2017
Обложка : Yes
Тип обложки : Cover (front)
MIME-тип обложки : image/png
Аудио
Формат : FLAC
Формат/Информация : Free Lossless Audio Codec
Продолжительность : 12 м. 28 с.
Вид битрейта : Переменный
Битрейт : 1838 Кбит/сек
Каналы : 2 канала
Channel layout : L R
Частота : 44,1 КГц
Битовая глубина : 24 бит
Метод сжатия : Без потерь
Размер потока : 164 Мбайт (100%)
Библиотека кодирования : libFLAC 1.3.2 (UTC 2017-01-01)
Общее
Полное имя : E:\Раздачи\Wonders Of Nature\Wonders Of Nature - Winter Forest, Legenda Revontulet (Deluxe Edition) (2017) [24-44.1]\03. Winter Twilight.flac
Формат : FLAC
Формат/Информация : Free Lossless Audio Codec
Размер файла : 71,9 Мбайт
Продолжительность : 10 м. 22 с.
Режим общего битрейта : Переменный
Общий поток : 969 Кбит/сек
Альбом : Winter Forest / Legenda Revontulet (Deluxe Edition)
Альбом/Исполнитель : Wonders Of Nature
Часть : 1
Трек : Winter Twilight
Трек/Положение : 3
Исполнитель : Wonders Of Nature
Жанр : Ambient / Atmospheric Black / Instrumental
Дата записи : 2016
Обложка : Yes
Тип обложки : Cover (front)
MIME-тип обложки : image/png
Аудио
Формат : FLAC
Формат/Информация : Free Lossless Audio Codec
Продолжительность : 10 м. 22 с.
Вид битрейта : Переменный
Битрейт : 959 Кбит/сек
Каналы : 2 канала
Channel layout : L R
Частота : 44,1 КГц
Битовая глубина : 24 бит
Метод сжатия : Без потерь
Размер потока : 71,1 Мбайт (99%)
Библиотека кодирования : libFLAC 1.3.2 (UTC 2017-01-01)
Общее
Полное имя : E:\Раздачи\Wonders Of Nature\Wonders Of Nature - Winter Forest, Legenda Revontulet (Deluxe Edition) (2017) [24-44.1]\04. At The Turn Of Last Winter.flac
Формат : FLAC
Формат/Информация : Free Lossless Audio Codec
Размер файла : 82,2 Мбайт
Продолжительность : 7 м. 2 с.
Режим общего битрейта : Переменный
Общий поток : 1631 Кбит/сек
Альбом : Winter Forest / Legenda Revontulet (Deluxe Edition)
Альбом/Исполнитель : Wonders Of Nature
Часть : 1
Трек : At The Turn Of Last Winter
Трек/Положение : 4
Исполнитель : Wonders Of Nature
Жанр : Ambient / Atmospheric Black / Instrumental
Дата записи : 2017
Обложка : Yes
Тип обложки : Cover (front)
MIME-тип обложки : image/png
Аудио
Формат : FLAC
Формат/Информация : Free Lossless Audio Codec
Продолжительность : 7 м. 2 с.
Вид битрейта : Переменный
Битрейт : 1617 Кбит/сек
Каналы : 2 канала
Channel layout : L R
Частота : 44,1 КГц
Битовая глубина : 24 бит
Метод сжатия : Без потерь
Размер потока : 81,5 Мбайт (99%)
Библиотека кодирования : libFLAC 1.3.2 (UTC 2017-01-01)
Общее
Полное имя : E:\Раздачи\Wonders Of Nature\Wonders Of Nature - Winter Forest, Legenda Revontulet (Deluxe Edition) (2017) [24-44.1]\05. Moonlight In The Winter Forest.flac
Формат : FLAC
Формат/Информация : Free Lossless Audio Codec
Размер файла : 79,1 Мбайт
Продолжительность : 12 м. 28 с.
Режим общего битрейта : Переменный
Общий поток : 886 Кбит/сек
Альбом : Winter Forest / Legenda Revontulet (Deluxe Edition)
Альбом/Исполнитель : Wonders Of Nature
Часть : 1
Трек : Moonlight In The Winter Forest
Трек/Положение : 5
Исполнитель : Wonders Of Nature
Жанр : Ambient / Atmospheric Black / Instrumental
Дата записи : 2016
Обложка : Yes
Тип обложки : Cover (front)
MIME-тип обложки : image/png
Аудио
Формат : FLAC
Формат/Информация : Free Lossless Audio Codec
Продолжительность : 12 м. 28 с.
Вид битрейта : Переменный
Битрейт : 878 Кбит/сек
Каналы : 2 канала
Channel layout : L R
Частота : 44,1 КГц
Битовая глубина : 24 бит
Метод сжатия : Без потерь
Размер потока : 78,3 Мбайт (99%)
Библиотека кодирования : libFLAC 1.3.2 (UTC 2017-01-01)
Общее
Полное имя : E:\Раздачи\Wonders Of Nature\Wonders Of Nature - Winter Forest, Legenda Revontulet (Deluxe Edition) (2017) [24-44.1]\06. Winter Stars.flac
Формат : FLAC
Формат/Информация : Free Lossless Audio Codec
Размер файла : 31,1 Мбайт
Продолжительность : 5 м. 18 с.
Режим общего битрейта : Переменный
Общий поток : 820 Кбит/сек
Альбом : Winter Forest / Legenda Revontulet (Deluxe Edition)
Альбом/Исполнитель : Wonders Of Nature
Часть : 1
Трек : Winter Stars
Трек/Положение : 6
Исполнитель : Wonders Of Nature
Жанр : Ambient / Atmospheric Black / Instrumental
Дата записи : 2016
Обложка : Yes
Тип обложки : Cover (front)
MIME-тип обложки : image/png
Аудио
Формат : FLAC
Формат/Информация : Free Lossless Audio Codec
Продолжительность : 5 м. 18 с.
Вид битрейта : Переменный
Битрейт : 801 Кбит/сек
Каналы : 2 канала
Channel layout : L R
Частота : 44,1 КГц
Битовая глубина : 24 бит
Метод сжатия : Без потерь
Размер потока : 30,4 Мбайт (98%)
Библиотека кодирования : libFLAC 1.3.2 (UTC 2017-01-01)
Общее
Полное имя : E:\Раздачи\Wonders Of Nature\Wonders Of Nature - Winter Forest, Legenda Revontulet (Deluxe Edition) (2017) [24-44.1]\07. Talvi Tuli.flac
Формат : FLAC
Формат/Информация : Free Lossless Audio Codec
Размер файла : 26,0 Мбайт
Продолжительность : 2 м. 8 с.
Режим общего битрейта : Переменный
Общий поток : 1704 Кбит/сек
Альбом : Winter Forest / Legenda Revontulet (Deluxe Edition)
Альбом/Исполнитель : Wonders Of Nature
Часть : 1
Трек : Talvi Tuli
Трек/Положение : 7
Исполнитель : Wonders Of Nature
Жанр : Ambient / Atmospheric Black / Instrumental
Дата записи : 2017
Обложка : Yes
Тип обложки : Cover (front)
MIME-тип обложки : image/png
Аудио
Формат : FLAC
Формат/Информация : Free Lossless Audio Codec
Продолжительность : 2 м. 8 с.
Вид битрейта : Переменный
Битрейт : 1657 Кбит/сек
Каналы : 2 канала
Channel layout : L R
Частота : 44,1 КГц
Битовая глубина : 24 бит
Метод сжатия : Без потерь
Размер потока : 25,3 Мбайт (97%)
Библиотека кодирования : libFLAC 1.3.2 (UTC 2017-01-01)

Об альбоме

Переиздание альбома Winter Forest испанским лейблом In The Morningside Records в формате Double cd on Deluxe Digipack тиражом 500 копий. Включает в себя альбомы: CD1: Winter Forest (2016), Legenda Revontulet (2016). CD2: сборник демо-записей In The Darkness Of Night (2016).

Мои раздачи с альбомами WONDERS OF NATURE

Wonders Of Nature / Kola Peninsula II (2019) [TR24][OF] (24bit / 44kHz)
Wonders Of Nature / Kola Peninsula II (2019) [MP3] (320 kbps)
Wonders Of Nature / Wind (Single) (2019) [TR24][OF] (24bit / 44kHz)
Wonders Of Nature / Mysterious Peaks (Remastered) (2019) [MP3]
Wonders Of Nature / Mysterious Peaks (Remastered) [TR24][OF] (24bit / 44kHz)
Wonders Of Nature / Kola Peninsula I (2019) [TR24][OF] (24bit / 44kHz)
Wonders Of Nature / Kola Peninsula I (2019) [MP3] (320 kbps)
Wonders Of Nature / Highland Echoes (2018) [TR24][OF] (24bit / 44kHz)
Wonders Of Nature / Winter Forest (Bonus Edition) (2018) [TR24][OF] (24bit / 44kHz)
Wonders Of Nature / Winter Forest (Bonus Edition) (2018) [MP3] (320 kbps)
Wonders Of Nature / Rain (Single) (2017) [TR24][OF] (24bit / 44kHz)
Wonders Of Nature / Symphony Of Winds (Demo) [TR24][OF] (24bit / 44kHz)
Wonders Of Nature / Symphony Of Winds (Demo) (2017) [MP3] (320 kbps)
Wonders Of Nature / Winter Forest / Legenda Revontulet (Deluxe Edition) (2017) [Lossless] (FLAC (*.flac))
Wonders Of Nature / Mysterious Peaks (2016) [TR24][OF] (24bit / 44kHz)
Wonders Of Nature / Lähde Polar Myrskyt (Compilation) (2016) [TR24][OF] (24bit / 44kHz)
Wonders Of Nature / Norrsken (EP) (2016) [TR24][OF] (24bit / 44kHz)
Wonders Of Nature / Winter Forest (2016) [TR24][OF] (24bit / 44kHz)
Wonders Of Nature / Glow Over The Forest (EP) (2016) [TR24][OF] (24bit / 44kHz)
Wonders Of Nature / Legenda Revontulet (2016) [TR24][OF] (24bit / 44kHz)
Wonders Of Nature / Legenda Revontulet (2016) [Lossless] (FLAC (*.flac))
Wonders Of Nature / Passion For Nature (2015) [TR24][OF] (24bit / 44kHz)
Wonders Of Nature / Passion For Nature (2015) [Lossless] (FLAC (*.flac))
Wonders Of Nature / Official Discography (17 CD) (2015 - 2016) [MP3] (320 kbps)
[ru-zerkalo.org]_t_5840034
Torrent: Registered ·  [ 2020-01-24 14:33 ] ·  79558e3b249bcc10791681fe5be67f25ffdfbc76

17 KB

Status: checked
Completed: 0 times
Size: 1.5 GB
Rating: 
(Votes: 0)
Say thanks: 0  Thanks
 
Похожие темы
[Profile] [PM]
Display posts from previous:    
Reply to topic

The time now is: Today 07:16

All times are GMT + 7 Hours



You cannot post new topics in this forum
You cannot reply to topics in this forum
You cannot edit your posts in this forum
You cannot delete your posts in this forum
You cannot vote in polls in this forum
You cannot attach files in this forum
You can download files in this forum