Register · 
Username: Password:
 ·  Forgot password?

[TR24][OF] Annihilator - Ballistic, Sadistic - 2020 (Thrash Metal)

Reply to topic
DL-List and Torrent activity [Update пиров]
Size:  546 MB   |    Registered:  1 month 4 days   |    Completed:  1 time

Seeder not seen: 11 days

 
   
 
 
 
Author Message

ANTON1404 ®

Gender:

Longevity: 6 years 5 months

Posts: 19072

Post 24-Jan-2020 14:33

[Quote]

Annihilator - Ballistic, Sadistic- Формат / Источник записи: [TR24][OF]
Наличие водяных знаков: Нет
Год издания: 2020-01-24
Жанр: Thrash Metal
Издатель-лейбл: Neverland Music Inc.
Продолжительность: 00:45:28
Наличие сканов: Нет
Контейнер: FLAC (*.flac)
Тип рипа: tracks
Разрядность: 24/44.1
Формат: PCM
Количество каналов: 2.0
Источник: интернет

Треклист:
01. Armed To The Teeth (4:26)
02. The Attitude (4:02)
03. Psycho Ward (4:39)
04. I Am Warfare (4:47)
05. Out With The Garbage (4:27)
06. Dressed Up For Evil (4:41)
07. Riot (3:46)
08. One Wrong Move (4:36)
09. Lip Service (5:48)
10. The End Of The Lie (4:16)

Лог проверки качества

foobar2000 1.5 / Замер динамического диапазона (DR) 1.1.1Дата отчёта: 2020-01-24 07:58:26
--------------------------------------------------------------------------------Анализ: Annihilator / Ballistic, Sadistic--------------------------------------------------------------------------------
DR Пики RMS Продолжительность трека--------------------------------------------------------------------------------DR6 -0.10 дБ -7.11 дБ 4:26 01-Armed To The TeethDR6 -0.10 дБ -7.23 дБ 4:02 02-The AttitudeDR7 -0.10 дБ -8.14 дБ 4:39 03-Psycho WardDR6 -0.10 дБ -7.14 дБ 4:47 04-I Am WarfareDR6 -0.10 дБ -7.35 дБ 4:27 05-Out With The GarbageDR6 -0.10 дБ -7.02 дБ 4:41 06-Dressed Up For EvilDR7 -0.10 дБ -7.54 дБ 3:46 07-RiotDR6 -0.10 дБ -8.09 дБ 4:36 08-One Wrong MoveDR7 -0.10 дБ -8.45 дБ 5:48 09-Lip ServiceDR7 -0.10 дБ -7.64 дБ 4:16 10-The End Of The Lie--------------------------------------------------------------------------------
Количество треков: 10Реальные значения DR: DR6
Частота: 44100 ГцКаналов: 2Разрядность: 24Битрейт: 1667 кбит/сКодек: FLAC================================================================================
[ru-zerkalo.org]_t_5840028
Torrent: Registered ·  [ 2020-01-24 14:33 ] ·  4012219ef6efad30aed4a4a4f799a3475e71217f

12 KB

Status: checked
Completed: 1 times
Size: 546 MB
Rating: 
(Votes: 0)
Say thanks: 0  Thanks
 
Похожие темы
[Profile] [PM]
Display posts from previous:    
Reply to topic

The time now is: Today 06:39

All times are GMT + 7 Hours



You cannot post new topics in this forum
You cannot reply to topics in this forum
You cannot edit your posts in this forum
You cannot delete your posts in this forum
You cannot vote in polls in this forum
You cannot attach files in this forum
You can download files in this forum