Register · 
Username: Password:
 ·  Forgot password?

[TR24][OF] Pyogenesis - A Silent Soul Screams Loud - 2019 (Alternative Rock/Punk)

Reply to topic
DL-List and Torrent activity [Update пиров]
Size:  483 MB   |    Registered:  1 month 4 days   |    Completed:  0 times

Seeder not seen: Never

 
   
 
 
 
Author Message

ANTON1404 ®

Gender:

Longevity: 6 years 5 months

Posts: 19072

Post 24-Jan-2020 17:39

[Quote]

Pyogenesis - A Silent Soul Screams Loud- Формат / Источник записи: [TR24][OF]
Наличие водяных знаков: Нет
Год издания: 2020-01-24
Жанр: Rock
Издатель-лейбл: AFM Records
Продолжительность: 00:39:59
Наличие сканов: Нет
Контейнер: FLAC (*.flac)
Тип рипа: tracks
Разрядность: 24/44.1
Формат: PCM
Количество каналов: 2.0
Источник: интернет

Треклист:
01. Survival of the Fittest (4:04)
02. Mother Bohemia (3:43)
03. I Can't Breathe (Prologue) (2:24)
04. I Can't Breathe (Monologue) (4:34)
05. High Old Times (3:02)
06. Modern Prometheus (feat. Chris Harms, Lord Of The Lost) (4:40)
07. Will I Ever Feel the Same (3:08)
08. The Capital (A Silent Soul Screams Loud) (14:24)

Лог проверки качества

foobar2000 1.5 / Замер динамического диапазона (DR) 1.1.1Дата отчёта: 2020-01-24 13:48:07
--------------------------------------------------------------------------------Анализ: Pyogenesis / A Silent Soul Screams Loud--------------------------------------------------------------------------------
DR Пики RMS Продолжительность трека--------------------------------------------------------------------------------DR7 -1.67 дБ -10.46 дБ 4:04 01-Survival of the FittestDR6 -1.69 дБ -9.52 дБ 3:43 02-Mother BohemiaDR13 -2.57 дБ -18.57 дБ 2:24 03-I Can't Breathe (Prologue)DR8 -1.87 дБ -11.97 дБ 4:34 04-I Can't Breathe (Monologue)DR7 -1.71 дБ -11.32 дБ 3:02 05-High Old TimesDR7 -1.38 дБ -11.39 дБ 4:40 06-Modern Prometheus (feat. Chris Harms, Lord Of The Lost)DR7 -2.10 дБ -10.89 дБ 3:08 07-Will I Ever Feel the SameDR6 -0.10 дБ -9.06 дБ 14:24 08-The Capital (A Silent Soul Screams Loud)--------------------------------------------------------------------------------
Количество треков: 8Реальные значения DR: DR8
Частота: 44100 ГцКаналов: 2Разрядность: 24Битрейт: 1654 кбит/сКодек: FLAC================================================================================
[ru-zerkalo.org]_t_5840093
Torrent: Registered ·  [ 2020-01-24 17:39 ] ·  bdd5aba20501757116d6082dc51f5c327a5888da

20 KB

Status: checked
Completed: 0 times
Size: 483 MB
Rating: 
(Votes: 0)
Say thanks: 0  Thanks
 
Похожие темы
[Profile] [PM]
Display posts from previous:    
Reply to topic

The time now is: Today 07:28

All times are GMT + 7 Hours



You cannot post new topics in this forum
You cannot reply to topics in this forum
You cannot edit your posts in this forum
You cannot delete your posts in this forum
You cannot vote in polls in this forum
You cannot attach files in this forum
You can download files in this forum