Register · 
Username: Password:
 ·  Forgot password?

[TR24][OF] Kirk Windstein (Crowbar) - Dream In Motion - 2020 (Sludge Metal)

Reply to topic
DL-List and Torrent activity [Update пиров]
Size:  553 MB   |    Registered:  1 month 4 days   |    Completed:  0 times

Seeder not seen: Never

 
   
 
 
 
Author Message

ANTON1404 ®

Gender:

Longevity: 6 years 5 months

Posts: 19072

Post 24-Jan-2020 21:49

[Quote]

Kirk Windstein - Dream In Motion- Формат / Источник записи: [TR24][OF]
Наличие водяных знаков: Нет
Год издания: 2020-01-24
Жанр: Sludge Metal
Издатель-лейбл: eOne Music
Продолжительность: 00:43:56
Наличие сканов: Нет
Контейнер: FLAC (*.flac)
Тип рипа: tracks
Разрядность: 24/48
Формат: PCM
Количество каналов: 2.0
Источник: интернет

Треклист:
01. Dream In Motion (4:11)
02. Hollow Dying Man (3:32)
03. Once Again (3:58)
04. Enemy In Disguise (3:57)
05. The World You Know (4:10)
06. Toxic (3:39)
07. The Healing (4:19)
08. Necropolis (3:52)
09. The Ugly Truth (4:54)
10. Aqualung (7:24)

Лог проверки качества

foobar2000 1.5 / Замер динамического диапазона (DR) 1.1.1Дата отчёта: 2020-01-24 13:10:20
--------------------------------------------------------------------------------Анализ: Kirk Windstein / Dream In Motion--------------------------------------------------------------------------------
DR Пики RMS Продолжительность трека--------------------------------------------------------------------------------DR6 -0.24 дБ -7.32 дБ 4:11 01-Dream In MotionDR7 -0.24 дБ -9.50 дБ 3:32 02-Hollow Dying ManDR6 -0.24 дБ -7.62 дБ 3:58 03-Once AgainDR8 -0.24 дБ -10.53 дБ 3:57 04-Enemy In DisguiseDR7 -0.24 дБ -9.07 дБ 4:10 05-The World You KnowDR7 -0.24 дБ -8.62 дБ 3:39 06-ToxicDR8 -0.24 дБ -10.98 дБ 4:19 07-The HealingDR7 -0.24 дБ -8.99 дБ 3:52 08-NecropolisDR7 -0.24 дБ -9.89 дБ 4:54 09-The Ugly TruthDR7 -0.24 дБ -8.72 дБ 7:24 10-Aqualung--------------------------------------------------------------------------------
Количество треков: 10Реальные значения DR: DR7
Частота: 48000 ГцКаналов: 2Разрядность: 24Битрейт: 1757 кбит/сКодек: FLAC================================================================================
[ru-zerkalo.org]_t_5840239
Torrent: Registered ·  [ 2020-01-24 21:49 ] ·  1c1c643aa6713cd698044a59aa6794a8e95b8b14

12 KB

Status: checked
Completed: 0 times
Size: 553 MB
Rating: 
(Votes: 0)
Say thanks: 0  Thanks
 
Похожие темы
[Profile] [PM]
Display posts from previous:    
Reply to topic

The time now is: Today 08:21

All times are GMT + 7 Hours



You cannot post new topics in this forum
You cannot reply to topics in this forum
You cannot edit your posts in this forum
You cannot delete your posts in this forum
You cannot vote in polls in this forum
You cannot attach files in this forum
You can download files in this forum