Register · 
Username: Password:
 ·  Forgot password?

(Electronic) [WEB] Oliver Coates - Upstepping - 2016, FLAC (tracks), lossless

Reply to topic
DL-List and Torrent activity [Update пиров]
Size:  253 MB   |    Registered:  1 month 1 day   |    Completed:  0 times

Seeder not seen: Never

 
   
 
 
 
Author Message

Andrew1225 ®

Gender:

Longevity: 6 years 5 months

Posts: 17873

Post 26-Jan-2020 12:43

[Quote]

Oliver Coates. "Upstepping"
.
Жанры. Electronic, Techno, EA, Modern Classical
Страна певца [born]. United Kingdom (London / Greater London)
Издатель. Prah Recordings (UK)
Номер по каталогу. PRAH006
Год издания. 2016
Носитель. WEB
Аудиокодек. FLAC (*.flac)
Тип рипа. tracks
Источник. red (bandcamp)
Продолжительность. 00:45:04
.
Треклист
01. .Innocent Love .[07:21]
02. .Timelapse (Walrus) .[07:41]
03. .Bambi 2046 .[05:17]
04. .Perfect Love .[06:54]
05. .Memorial to Hitchens .[02:55]
06. .The Irish Book of Death & Flying Ships .[02:57]
07. .Stash .[08:19]
08. .Rise & Fall .[03:43]

•auCDtect

-----------------------
DON'T MODIFY THIS FILE
-----------------------
PERFORMER: auCDtect Task Manager, ver. 1.6.0 RC1 build 1.6.0.1Copyright (c) 2008-2010 y-soft. All rights reserved
ANALYZER: auCDtect: CD records authenticity detector, version 0.8.2Copyright (c) 2004 Oleg Berngardt. All rights reserved.Copyright (c) 2004 Alexander Djourik. All rights reserved.
FILE: 08. Rise & Fall.flac Size: 15843368 Hash: B844A1DEA3592163968974F1606F60D8 Accuracy: -m0 Conclusion: CDDA 100% Signature: 836C1D1453C1F3AA590E76A00DB49F15768B7772FILE: 07. Stash.flac Size: 49349767 Hash: 1170EDF6CCB2E57DC1980F9E18CEF2DD Accuracy: -m0 Conclusion: CDDA 100% Signature: 825932F01807BEFBF0A33FA8853E9D57ABC26187FILE: 06. The Irish Book of Death & Flying Ships.flac Size: 15577228 Hash: BBF70CD12CD41A389B8BF2ADA40FA00B Accuracy: -m0 Conclusion: CDDA 100% Signature: 3E60DF18C82B627E5FF9E9F1749B9ED2ECDE2B26FILE: 05. Memorial to Hitchens.flac Size: 14745422 Hash: CAD5B91FAB8D08FC4F207877040221B3 Accuracy: -m0 Conclusion: CDDA 100% Signature: 56CFD3FB9359FFD053CA9F6B78915A5897252A05FILE: 04. Perfect Love.flac Size: 36603264 Hash: 4AA66FAB19A72582F4D730B9D47E6F7C Accuracy: -m0 Conclusion: CDDA 100% Signature: 15FC9B8730BE46C8D218F3CEB369CCC6DB78EDD7FILE: 03. Bambi 2046.flac Size: 28446885 Hash: 1ED0DB9699A90FD49062EBC9C096B06B Accuracy: -m0 Conclusion: CDDA 100% Signature: A42352DAF75B6BC2C39D85D00BFFE9461CC35EBFFILE: 02. Timelapse (Walrus).flac Size: 51921056 Hash: F4C98DD68FEA10F98763DDF701123822 Accuracy: -m0 Conclusion: CDDA 100% Signature: A550077AF9A8D708F9D83C2C534B0F78D8144740FILE: 01. Innocent Love.flac Size: 51392426 Hash: A955D31C9E5C0467480ED210D4802E98 Accuracy: -m0 Conclusion: CDDA 100% Signature: 80091E8DE526436872119AD6F39B3D5577DBBF1E

dynamic range

foobar2000 1.3.9 / Dynamic Range Meter 1.1.1log date: 2020-01-25 19:02:26
--------------------------------------------------------------------------------Analyzed: Oliver Coates / Upstepping--------------------------------------------------------------------------------
DR Peak RMS Duration Track--------------------------------------------------------------------------------DR7 0.00 dB -9.83 dB 7:21 01-Innocent LoveDR8 -0.16 dB -10.38 dB 7:40 02-Timelapse (Walrus)DR3 -0.05 dB -8.11 dB 5:17 03-Bambi 2046DR7 -0.19 dB -8.43 dB 6:54 04-Perfect LoveDR7 -0.19 dB -11.56 dB 2:54 05-Memorial to HitchensDR8 -0.15 dB -10.98 dB 2:56 06-The Irish Book of Death & Flying ShipsDR6 -0.16 dB -9.09 dB 8:18 07-StashDR7 -0.18 dB -12.39 dB 3:42 08-Rise & Fall--------------------------------------------------------------------------------
Number of tracks: 8Official DR value: DR7
Samplerate: 44100 HzChannels: 2Bits per sample: 16Bitrate: 566 kbpsCodec: FLAC================================================================================
[ru-zerkalo.org]_t_5840902
Torrent: Registered ·  [ 2020-01-26 12:43 ] ·  2c4b0149ec1a86b87b4016fd24e4c0d3f58688d2

21 KB

Status: checked
Completed: 0 times
Size: 253 MB
Rating: 
(Votes: 0)
Say thanks: 0  Thanks
 
Похожие темы
[Profile] [PM]
Display posts from previous:    
Reply to topic

The time now is: Today 10:01

All times are GMT + 7 Hours



You cannot post new topics in this forum
You cannot reply to topics in this forum
You cannot edit your posts in this forum
You cannot delete your posts in this forum
You cannot vote in polls in this forum
You cannot attach files in this forum
You can download files in this forum