Register · 
Username: Password:
 ·  Forgot password?

[TR24][OF] Rodrigo San Martín - Crazy Diamond Sessions 2016 - 2016 (Crossover Prog)

Reply to topic
DL-List and Torrent activity [Update пиров]
Size:  243 MB   |    Registered:  1 month 1 day   |    Completed:  0 times

Seeder not seen: Never

 
   
 
 
 
Author Message

ANTON1404 ®

Gender:

Longevity: 6 years 5 months

Posts: 19072

Post 26-Jan-2020 15:51

[Quote]

Rodrigo San Martín - Crazy Diamond Sessions 2016
Формат записи/Источник записи: [TR24][OF]
Наличие водяных знаков: Нет
Год издания/переиздания диска: 2016
Жанр: Crossover Prog
Продолжительность: 22:10
Наличие сканов в содержимом раздачи: Только обложка альбома
Источник (релизер): bandcamp.com
Треклист:
01. Amanecer 05:21
02. Incomplete 03:49
03. Want Me 04:38
04. Ahora/ Con los Ojos Abiertos (Finale) 08:20
Контейнер: FLAC (*.flac)
Тип рипа: tracks
Разрядность: 24/44,1
Формат: PCM
Количество каналов: 2.0

Лог проверки качества

foobar2000 1.3.19 / Замер динамического диапазона (DR) 1.1.1Дата отчёта: 2020-01-06 21:27:47
--------------------------------------------------------------------------------Анализ: Rodrigo San Martin / Crazy Diamond Sessions 2016--------------------------------------------------------------------------------
DR Пики RMS Продолжительность трека--------------------------------------------------------------------------------DR8 -2.44 дБ -12.17 дБ 5:21 01-AmanecerDR12 -3.06 дБ -19.32 дБ 3:49 02-IncompleteDR6 -2.48 дБ -11.09 дБ 4:39 03-Want MeDR8 -1.81 дБ -12.97 дБ 8:20 04-Ahora/ Con los Ojos Abiertos (Finale)--------------------------------------------------------------------------------
Количество треков: 4Реальные значения DR: DR8
Частота: 44100 ГцКаналов: 2Разрядность: 24Битрейт: 1576 кбит/сКодек: FLAC

Состав

Rodrigo San Martín: guitar, keyboards, flute.
Canela Sol: lead and backing vocals.
Darió Schmunck: lead and backing vocals.
Juan Manuel Torres: guitar.
Ignacio Gulich: bass.
Mike Buenaventura Lima: drums.

Об исполнителе (группе)

Rodrigo San Martín is an Argentine progressive rock guitarist,composer and producer.

Об альбоме (сборнике)

Recorded live at Estudio Crazy Diamond on December 2015, Buenos Aires, Argentina.
The original release features a cover of Pink Floyd's Mother, with guest vocals by Dario Schmunck, that couldn't be uploaded due to copyright issues.
Videos of the complete live session, including Mother, can be found on Youtube!
released January 13, 2016
[ru-zerkalo.org]_t_5840870
Torrent: Registered ·  [ 2020-01-26 15:50 ] ·  bedac20f353627aa8b399771493e37a962370472

20 KB

Status: checked
Completed: 0 times
Size: 243 MB
Rating: 
(Votes: 0)
Say thanks: 0  Thanks
 
Похожие темы
[Profile] [PM]
Display posts from previous:    
Reply to topic

The time now is: Today 09:41

All times are GMT + 7 Hours



You cannot post new topics in this forum
You cannot reply to topics in this forum
You cannot edit your posts in this forum
You cannot delete your posts in this forum
You cannot vote in polls in this forum
You cannot attach files in this forum
You can download files in this forum