Register · 
Username: Password:
 ·  Forgot password?

Legend of Avatar Country: A metal Odyssey [2019, Heavy Metal, Groove Metal, Melodic Death Metal, WEBRip]

Reply to topic
DL-List and Torrent activity [Update пиров]
Size:  1.26 GB   |    Registered:  1 month 1 day   |    Completed:  1 time

Seeder not seen: 22 days

 
   
 
 
 
Author Message

Nestor_13 ®

Gender:

Longevity: 6 years 5 months

Posts: 21816

Post 26-Jan-2020 15:51

[Quote]

Legend of Avatar Country: A metal Odyssey
Страна: Sweden
Жанр: Heavy Metal, Groove Metal, Melodic Death Metal
Продолжительность: 44:04
Год выпуска: 2019
Описание: The mighty tale of Your favorite band and their adventures in Avatar Country, made possible through the backing and support of our beloved Citizens!
Источник: скачано из сети
Cсылка http://avatarcountry.com/auth/cinema
Качество: WEBRip
Контейнер: MP4
Видео кодек: H.264
Аудио кодек: AAC
Видео: H264 - MPEG-4 AVC (part 10) (avc1), 1920x1080, (16:9), 3 898 kb/s, 24 (fps)
Аудио: AAC LC, 192 kb/s, 48 kHz, 2 chanels
Треклист:
1. Glory to Our King
2. Legend of the King
3. The King Welcomes You to Avatar Country
4. King's Harvest
5. The King Wants You
6. King After King
7. Silent Songs of the King Pt. 2: The King's Palace

Mediainfo

Общее
Полное имя : C:\Users\arina-krp\Downloads\Legend of Avatar Country_ A metal Odyssey.mp4
Формат : MPEG-4
Профиль формата : Base Media
Идентификатор кодека : isom (isom/iso2/avc1/mp41)
Размер файла : 1,26 Гбайт
Продолжительность : 44 м. 4 с.
Режим общего битрейта : Переменный
Общий поток : 4100 Кбит/сек
Видео
Идентификатор : 1
Формат : AVC
Формат/Информация : Advanced Video Codec
Профиль формата : High@L4.2
Настройки формата : CABAC / 3 Ref Frames
Параметр CABAC формата : Да
Параметр RefFrames формата : 3 кадра
Идентификатор кодека : avc1
Идентификатор кодека/Информация : Advanced Video Coding
Продолжительность : 44 м. 4 с.
Продолжительность оригинала : 44 м. 4 с.
Битрейт : 3898 Кбит/сек
Ширина : 1912 пикселей
Ширина оригинала : 1920 пикселей
Высота : 1088 пикселей
Высота оригинала : 1080 пикселей
Соотношение сторон : 16:9
Режим частоты кадров : Переменный
Частота кадров : 24,000 кадра/сек
Минимальная частота кадров : 4,800 кадров/сек
Максимальная частота кадров : 72,000 кадра/сек
Цветовое пространство : YUV
Субдискретизация насыщенности : 4:2:0
Битовая глубина : 8 бит
Тип развёртки : Прогрессивная
Бит/(Пиксели*Кадры) : 0.078
Размер потока : 1,20 Гбайт (95%)
Размер потока оригинала : 1,20 Гбайт (95%)
mdhd_Duration : 2644250
Codec configuration box : avcC
Аудио
Идентификатор : 2
Формат : AAC LC
Формат/Информация : Advanced Audio Codec Low Complexity
Идентификатор кодека : mp4a-40-2
Продолжительность : 44 м. 4 с.
Продолжительность оригинала : 44 м. 4 с.
Вид битрейта : Переменный
Битрейт : 192 Кбит/сек
Максимальный битрейт : 294 Кбит/сек
Каналы : 2 канала
ChannelLayout : L R
Частота : 48,0 КГц
Частота кадров : 46,875 кадров/сек (1024 SPF)
Метод сжатия : С потерями
Размер потока : 60,5 Мбайт (5%)
Размер потока оригинала : 60,5 Мбайт (5%)
mdhd_Duration : 2644352

Скриншоты

[ru-zerkalo.org]_t_5822804
Torrent: Registered ·  [ 2020-01-26 15:50 ] ·  f42aa5528526628fa0020f2af285f184e899605e

26 KB

Status: checked
Completed: 1 times
Size: 1.26 GB
Rating: 
(Votes: 0)
Say thanks: 0  Thanks
 
Похожие темы
[Profile] [PM]
Display posts from previous:    
Reply to topic

The time now is: Today 09:02

All times are GMT + 7 Hours



You cannot post new topics in this forum
You cannot reply to topics in this forum
You cannot edit your posts in this forum
You cannot delete your posts in this forum
You cannot vote in polls in this forum
You cannot attach files in this forum
You can download files in this forum