Register · 
Username: Password:
 ·  Forgot password?

Дон Жуан и Сганарель / Dom Juan & Sganarelle (Венсан Макен / Vincent Macaigne) [2015, Франция, драма, авангард, экранизация, эротика, DVB] VO (Олег Воротилин)

Reply to topic
DL-List and Torrent activity [Update пиров]
Size:  2.48 GB   |    Registered:  1 month 1 day   |    Completed:  0 times

Seeder not seen: Never

 
   
 
 
 
Author Message

rychkalov ®

Gender:

Longevity: 6 years 5 months

Posts: 18849

Post 26-Jan-2020 18:56

[Quote]

Дон Жуан и Сганарель / Dom Juan & Sganarelle
Страна: Франция
Жанр: драма, авангард, экранизация, эротика
Год выпуска: 2015
Продолжительность: 01:47:37
Перевод: Одноголосый закадровый Олег Воротилин по субтитрам компании Hiventy
Субтитры: нет
Оригинальная аудиодорожка: нет
Режиссер: Венсан Макен / Vincent Macaigne
В ролях: Лоик Корбери / Loic Corbery (Dom Juan), Серж Багдассарян / Serge Bagdassarian (Sganarelle), Жерар Жирудон / Gerard Giroudon (le Commandeur), Ален Ленгле / Alain Lenglet (Le pere), Жюли Сикар / Julie Sicard (Charlotte), Клеман Эрвье-Леже / Clement Hervieu-Leger (Le frere d'Elvire), Жиль Давид / Gilles David (le Mendiant), Сулиан Брахим / Suliane Brahim (Elvire), Жереми Лопес / Jeremy Lopez (Pierrot), Клер де ла Рю дю Кан / Claire de la Rue du Can (Mathurine)
Описание: Авангардная экранизация пьесы Мольера "Дон Жуан, или Каменный гость / Dom Juan ou le Festin de pierre" (1665) с участием актеров театра "Комеди Франсез". Используя оригинальный текст пьесы Венсан Макен переносит действие в настоящее время и превращает ее в мрачное и тревожное путешествие Дона Жуана и его камердинера Сганареля по глубинам человеческого дна. Дон Жуан - богохульный развратник, соблазняющий любого, попавшего на его пути, как и Эльвиру, которая проклянет его, поняв, что ее одурачили. Но жизнь его окончится плачевно, он сам окажется жертвой своих же преступлений - будет наказан призраком командора, которого когда-то убил...
Доп. информация: Hot Bird (13.0°E) TV5MONDE Europe DVB-S
Сэмпл: http://yadi.sk/i/8RsT8fieWznSKw
Качество видео: DVB
Формат видео: MKV
Видео: MPEG Video 2, 720x576@1024x576 (16:9), 25 fps, ~3039 kbps avg, 0.293 bit/pixel
Аудио: AC-3, 2 ch, 48 kHz, 192.00 kbps

MediaInfo

ОбщееУникальный идентификатор : 197830622851779874792380709275506579377 (0x94D4CAC3929A4580A39D90DD37E417B1)Полное имя : E:\Видео\ы\Дон Жуан\[apreder]Dom_Juan_Sganarelle(2015).mkvФормат : MatroskaВерсия формата : Version 2Размер файла : 2,48 ГбайтПродолжительность : 1 ч. 47 м.Режим общего битрейта : ПеременныйОбщий поток : 3297 Кбит/секНазвание фильма : Dom Juan & SganarelleДата выпуска : 2015-00-00Дата кодирования : UTC 2020-01-23 15:53:06Программа кодирования : mkvmerge v4.1.1 ('Bouncin' Back') сборка от Jul 3 2010 22:54:08Библиотека кодирования : libebml v1.0.0 + libmatroska v1.0.0Обложка : YesAttachments : cover.jpg / small_cover.jpgACTOR : Loic Corbery, Serge BagdassarianDIRECTOR : Vincent MacaigneGENRE : DramaIMDB : tt4881226KEYWORDS : LAW_RATING : 16+
ВидеоИдентификатор : 1Формат : MPEG VideoВерсия формата : Version 2Профиль формата : Main@MainПараметр BVOP формата : ДаПараметр матрицы формата : ВыборочнаяПараметр GOP формата : M=4, N=12Структура изображения : FrameИдентификатор кодека : V_MPEG2Идентификатор кодека/Информация : MPEG 1 or 2 VideoПродолжительность : 1 ч. 47 м.Вид битрейта : ПеременныйБитрейт : 3039 Кбит/секМаксимальный битрейт : 15,0 Мбит/секШирина : 720 пикселейВысота : 576 пикселейСоотношение сторон : 16:9Описание активного формата : Letterbox 16:9 imageРежим частоты кадров : ПостоянныйЧастота кадров : 25,000 кадров/секСтандарт вещания : PALЦветовое пространство : YUVСубдискретизация насыщенности : 4:2:0Битовая глубина : 8 битТип развёртки : ЧересстрочнаяПорядок развёртки : Верхнее поле первоеМетод сжатия : С потерямиБит/(Пиксели*Кадры) : 0.293Размер потока : 2,28 Гбайт (92%)Default : ДаForced : Нет
АудиоИдентификатор : 2Формат : AC-3Формат/Информация : Audio Coding 3Расширение режима : CM (complete main)Параметр Endianness формата : BigРежим смешивания : Header strippingИдентификатор кодека : A_AC3Продолжительность : 1 ч. 47 м.Вид битрейта : ПостоянныйБитрейт : 192 Кбит/секКаналы : 2 каналаРасположение каналов : Front: L RЧастота : 48,0 КГцЧастота кадров : 31,250 кадров/сек (1536 spf)Битовая глубина : 16 битМетод сжатия : С потерямиРазмер потока : 148 Мбайт (6%)Язык : RussianDefault : ДаForced : Нет

Скриншот c названием фильма

Скриншоты








скрытый текст

http:///forum/viewtopic.php?t=5838376
[ru-zerkalo.org]_t_5840622
Torrent: Registered ·  [ 2020-01-26 18:56 ] ·  888c186c1e797395331c66509aa14c7f298fd478

13 KB

Status: checked
Completed: 0 times
Size: 2.48 GB
Rating: 
(Votes: 0)
Say thanks: 0  Thanks
 
Похожие темы
[Profile] [PM]
Display posts from previous:    
Reply to topic

The time now is: Today 09:50

All times are GMT + 7 Hours



You cannot post new topics in this forum
You cannot reply to topics in this forum
You cannot edit your posts in this forum
You cannot delete your posts in this forum
You cannot vote in polls in this forum
You cannot attach files in this forum
You can download files in this forum