Register · 
Username: Password:
 ·  Forgot password?

Силуэт / Voices from Within / Silhouette (Эрик Тилль / Eric Till) [1994, Канада, США, триллер, детектив, DVDRip-AVC] AVO (Леонид Володарский)

Reply to topic
DL-List and Torrent activity [Update пиров]
Size:  1.52 GB   |    Registered:  1 month   |    Completed:  0 times

Seeder not seen: Never

 
   
 
 
 
Author Message

FragoMan ®

Gender:

Longevity: 6 years 5 months

Posts: 25184

Post 27-Jan-2020 23:03

[Quote]

Силуэт / Voices from Within / Silhouette
Страна: Канада, США
Жанр: триллер, детектив
Год выпуска: 1994
Продолжительность: 01:30:21
Перевод: Авторский (одноголосый закадровый) Леонид Володарский
Субтитры: нет
Режиссер: Эрик Тилль / Eric Till
В ролях: ДжоБет Уильямс, Корбин Бернсен, Стефани Цимбалист, Уинстон Рекерт, Чарльз Босуэлл, Кен Поуг, Сандра Нельсон, Луис Феррейра, Питер Уайт, Роман Подхора...
Описание: Убивают женщину по имени Энн. На опознание вызывают ее сестру Нэнси. Идет следствие, которым также активно занимается полицейский психиатр Корбин Бернсен. В ходе этого расследования выясняется, что у покойной был множественный раскол личности. Она была Энн для Нэнси, медсестрой Лиз на работе, художницей Элли, отвязной девицей, обожающей снимать в барах мужиков. Для того, чтобы найти убийцу, нужно узнать, кем она была в момент смерти. Тайна прячется в прошлом.
Доп. информация: Перевод Володарского с VHSRip от edich2. Синхронизация звука - Dreven.
Сэмпл: http://www.sendspace.com/file/3dnt04
Качество видео: DVDRip-AVC
Формат видео: MKV
Видео: 700x476 (4:3) @ 700x536, 23.976 fps, AVC, ~2163 Kbps, 0.271 bits/pixel
Аудио: Russian, 48.0 KHz, AC3, 2 ch, 192 Kbps - Леонид Володарский

MediaInfo

GeneralUnique ID : 195035531816430270270907434525396867648 (0x92BA7A22DD104F2E01D5E4C8A56C9A40)Complete name : C:\Voices from Within.mkvFormat : MatroskaFormat version : Version 4File size : 1.52 GiBDuration : 1 h 30 minOverall bit rate : 2 403 kb/sEncoded date : UTC 2020-01-27 05:53:54Writing application : mkvmerge v42.0.0 ('Overtime') 64-bitWriting library : libebml v1.3.10 + libmatroska v1.5.2
VideoID : 1Format : AVCFormat/Info : Advanced Video CodecFormat profile : High@L4.1Format settings : CABAC / 16 Ref FramesFormat settings, CABAC : YesFormat settings, Reference : 16 framesCodec ID : V_MPEG4/ISO/AVCDuration : 1 h 30 minBit rate : 2 209 kb/sWidth : 700 pixelsHeight : 476 pixelsDisplay aspect ratio : 4:3Frame rate mode : ConstantFrame rate : 23.976 (24000/1001) FPSColor space : YUVChroma subsampling : 4:2:0Bit depth : 8 bitsScan type : ProgressiveBits/(Pixel*Frame) : 0.277Stream size : 1.39 GiB (92%)Writing library : x264 core 157 r2935 545de2fEncoding settings : cabac=1 / ref=16 / deblock=1:-3:-3 / analyse=0x3:0x133 / me=umh / subme=10 / psy=1 / psy_rd=1.00:0.00 / mixed_ref=1 / me_range=32 / chroma_me=1 / trellis=2 / 8x8dct=1 / cqm=0 / deadzone=21,11 / fast_pskip=0 / chroma_qp_offset=-2 / threads=15 / lookahead_threads=3 / sliced_threads=0 / nr=0 / decimate=0 / interlaced=0 / bluray_compat=0 / constrained_intra=0 / bframes=16 / b_pyramid=2 / b_adapt=2 / b_bias=0 / direct=3 / weightb=1 / open_gop=0 / weightp=2 / keyint=240 / keyint_min=24 / scenecut=40 / intra_refresh=0 / rc_lookahead=60 / rc=crf / mbtree=0 / crf=16.8 / qcomp=0.60 / qpmin=0 / qpmax=69 / qpstep=4 / vbv_maxrate=62500 / vbv_bufsize=78125 / crf_max=0.0 / nal_hrd=none / filler=0 / ip_ratio=1.40 / pb_ratio=1.30 / aq=2:1.00Language : EnglishDefault : YesForced : NoColor range : LimitedColor primaries : BT.601 NTSCTransfer characteristics : BT.709Matrix coefficients : BT.601
AudioID : 2Format : AC-3Format/Info : Audio Coding 3Commercial name : Dolby DigitalCodec ID : A_AC3Duration : 1 h 30 minBit rate mode : ConstantBit rate : 192 kb/sChannel(s) : 2 channelsChannel layout : L RSampling rate : 48.0 kHzFrame rate : 31.250 FPS (1536 SPF)Compression mode : LossyStream size : 124 MiB (8%)Title : Леонид ВолодарскийLanguage : RussianService kind : Complete MainDefault : YesForced : No
Menu00:00:00.083 : :Chapter 100:10:00.934 : :Chapter 200:20:01.701 : :Chapter 300:30:02.467 : :Chapter 400:40:02.609 : :Chapter 500:50:03.083 : :Chapter 601:00:03.809 : :Chapter 701:10:04.409 : :Chapter 801:20:05.009 : :Chapter 9

Скриншоты

[ru-zerkalo.org]_t_5841699
Torrent: Registered ·  [ 2020-01-27 23:03 ] ·  9b685ec65694956c0ea6a9aab003eef94ad6154b

16 KB

Status: checked
Completed: 0 times
Size: 1.52 GB
Rating: 
(Votes: 0)
Say thanks: 0  Thanks
 
Похожие темы
[Profile] [PM]
Display posts from previous:    
Reply to topic

The time now is: Today 10:16

All times are GMT + 7 Hours



You cannot post new topics in this forum
You cannot reply to topics in this forum
You cannot edit your posts in this forum
You cannot delete your posts in this forum
You cannot vote in polls in this forum
You cannot attach files in this forum
You can download files in this forum