Register · 
Username: Password:
 ·  Forgot password?

(Eurodance, Happy Hardcore,) [CDM] Critical Mass - Happy Generation - 1996, FLAC (image+.cue), lossless

Reply to topic
DL-List and Torrent activity [Update пиров]
Size:  267 MB   |    Registered:  1 month   |    Completed:  0 times

Seeder not seen: Never

 
   
 
 
 
Author Message

Shadow123 ®

Gender:

Longevity: 6 years 5 months

Posts: 15468

Post 27-Jan-2020 23:03

[Quote]

Critical Mass / Happy Generation
Жанр: Eurodance, Happy Hardcore,
Носитель: CDM
Страна-производитель диска (релиза): Netherlands
Год издания: 1996
Издатель (лейбл): Pengo Records
Номер по каталогу: Pengo 019 CDM
Страна исполнителя (группы): Netherlands
Аудиокодек: FLAC (*.flac)
Тип рипа: image+.cue
Продолжительность: 00:31:08
Источник: собственный рип
Наличие сканов в содержимом раздачи: да
Треклист:
1. Happy Generation (Radio Edit)
2. Happy Generation (Extended Mix)
3. Happy Generation (Trimix)
4. Happy Generation (Deaz. D. Remix)
5. Happy Generation (DJ Weirdo & Mtness Remix)
6. Happy Generation (Buzz Fuzz Remix)

Лог создания рипа

Exact Audio Copy V1.3 from 2. September 2016
Отчёт EAC об извлечении, выполненном 26. января 2020, 3:01
Critical Mass / Happy Generation
Дисковод: HL-DT-STDVDRAM GH24NSD5 Adapter: 1 ID: 0
Режим чтения : ДостоверностьИспользование точного потока : ДаОтключение кэша аудио : ДаИспользование указателей C2 : Нет
Коррекция смещения при чтении : 6Способность читать области Lead-in и Lead-out : НетЗаполнение пропущенных сэмплов тишиной : ДаУдаление блоков с тишиной в начале и конце : НетПри вычислениях CRC использовались нулевые сэмплы : ДаИнтерфейс : Встроенный Win32-интерфейс для Win NT/2000
Выходной формат : Пользовательский кодировщикВыбранный битрейт : 896 kBit/sКачество : ВысокийДобавление ID3-тега : НетУтилита сжатия : C:\Program Files (x86)\Exact Audio Copy\Flac\flac.exeДополнительные параметры : -V -8 -T "Date=%year%" -T "Genre=%genre%" %source%
TOC извлечённого CD
Трек | Старт | Длительность | Начальный сектор | Конечный сектор --------------------------------------------------------------------- 1 | 0:00.33 | 3:50.72 | 33 | 17354 2 | 3:51.30 | 5:33.13 | 17355 | 42342 3 | 9:24.43 | 5:23.00 | 42343 | 66567 4 | 14:47.43 | 5:37.30 | 66568 | 91872 5 | 20:24.73 | 5:41.52 | 91873 | 117499 6 | 26:06.50 | 6:24.70 | 117500 | 146369
Характеристики диапазона извлечения и сообщения об ошибках
Выбранный диапазон
Имя файла D:\Program Files\Exact Audio Copy\Flac\Critical Mass - Happy Generation\Critical Mass - Happy Generation.wav
Пиковый уровень 98.2 % Скорость извлечения 1.5 X Качество диапазона 100.0 % CRC теста 01F8ECE7 CRC копии 01F8ECE7 Копирование... OK
Ошибок не произошло
AccurateRip: сводка
Трек 1 : извлечено точно (доверие 7) [40282035] (AR v2)Трек 2 : извлечено точно (доверие 7) [2A1AFB94] (AR v2)Трек 3 : извлечено точно (доверие 7) [C248E506] (AR v2)Трек 4 : извлечено точно (доверие 7) [68C64D62] (AR v2)Трек 5 : извлечено точно (доверие 7) [C980C690] (AR v2)Трек 6 : извлечено точно (доверие 7) [EDE4FDA3] (AR v2)
Все треки извлечены точно
Конец отчёта
---- CUETools DB Plugin V2.1.6
[CTDB TOCID: afpTWGQ3sSwFJjJrffvObVmL3pE-] foundSubmit result: afpTWGQ3sSwFJjJrffvObVmL3pE- has been confirmedTrack | CTDB Status 1 | (7/7) Accurately ripped 2 | (7/7) Accurately ripped 3 | (7/7) Accurately ripped 4 | (6/7) Accurately ripped, or (1/7) differs in 39 samples @04:03:23,04:06:31 5 | (7/7) Accurately ripped 6 | (7/7) Accurately ripped
==== Контрольная сумма отчёта 8C8EE1ACB572296964F60CE395E10B41A38E4B49720D3F79CB9E234753826E8B ====

Содержание индексной карты (.CUE)

REM GENRE EurodanceREM DATE 1996REM DISCID 53079F06REM COMMENT "ExactAudioCopy v1.3"PERFORMER "Critical Mass"TITLE "Happy Generation"REM COMPOSER ""FILE "Critical Mass - Happy Generation.flac" WAVE TRACK 01 AUDIO TITLE "Happy Generation (Radio Edit)" PERFORMER "Critical Mass" REM COMPOSER "" INDEX 00 00:00:00 INDEX 01 00:00:33 TRACK 02 AUDIO TITLE "Happy Generation (X-Tended Mix)" PERFORMER "Critical Mass" REM COMPOSER "" INDEX 00 03:50:00 INDEX 01 03:51:30 TRACK 03 AUDIO TITLE "Happy Generation (Tri-Mix)" PERFORMER "Critical Mass" REM COMPOSER "" INDEX 00 09:22:58 INDEX 01 09:24:43 TRACK 04 AUDIO TITLE "Happy Generation (Deaz D. Mix)" PERFORMER "Critical Mass" REM COMPOSER "" INDEX 00 14:45:58 INDEX 01 14:47:43 TRACK 05 AUDIO TITLE "Happy Generation (DJ Weirdo & MTness Mix)" PERFORMER "Critical Mass" REM COMPOSER "" INDEX 00 20:23:15 INDEX 01 20:24:73 TRACK 06 AUDIO TITLE "Happy Generation (Buzz Fuzz Mix)" PERFORMER "Critical Mass" REM COMPOSER "" INDEX 00 26:04:68 INDEX 01 26:06:50
[ru-zerkalo.org]_t_5841076
Torrent: Registered ·  [ 2020-01-27 23:03 ] ·  3cafde52c8c228a1cc77e674c76977495c72c382

11 KB

Status: checked
Completed: 0 times
Size: 267 MB
Rating: 
(Votes: 0)
Say thanks: 0  Thanks
 
Похожие темы
[Profile] [PM]
Display posts from previous:    
Reply to topic

The time now is: Today 09:45

All times are GMT + 7 Hours



You cannot post new topics in this forum
You cannot reply to topics in this forum
You cannot edit your posts in this forum
You cannot delete your posts in this forum
You cannot vote in polls in this forum
You cannot attach files in this forum
You can download files in this forum