Register · 
Username: Password:
 ·  Forgot password?

Мелодия любви / Bao jian ta / Melody of Love (Тун Фей Моу / Tun Fei Mou) [1978, Гонконг, Тайвань, Мелодрама, комедия, DVDRip] VO (В. Береговых) + Sub Rus + Original Zho

Reply to topic
DL-List and Torrent activity [Update пиров]
Size:  1.37 GB   |    Registered:  1 month   |    Completed:  0 times

Seeder not seen: Never

 
   
 
 
 
Author Message

god56 ®

Gender:

Longevity: 6 years 5 months

Posts: 26303

Post 27-Jan-2020 23:03

[Quote]

Мелодия любви / Bao jian ta / Melody of Love
Страна: Гонконг, Тайвань
Студия: Shaw Brothers
Жанр: Мелодрама, комедия
Год выпуска: 1978
Продолжительность: 01:28:03
Перевод: Одноголосый закадровый | Виктор Береговых
Субтитры: русские
Оригинальная аудиодорожка: китайский
Режиссер: Тун Фей Моу / Tun Fei Mou
В ролях:
Дэнни Ли, Ниу Ниу, Лок Хуа Лью, Йао Хсиао, Шан-Чиен Лью, Сзу-Чиа Чен, Су Ханг, Шен Юэнь, Лю Иньшан, Йен Ву
Описание:
Трое молодых докторов, хирург, педиатр и терапевт, знакомятся с тремя молодыми девушками, но не просто знакомятся, а по приказу своего директора, который решает проверить парней насчет женского пола и дает им неделю, чтобы охмурить красоток. Девушки узнают об этом и сделают все, чтобы парни остались с носом.-| IMDb | КиноПоиск | Скачать сэмпл | для рипа DVD-5 |-Заказ перевода Виктора Береговых: vitolinform-Качество видео: DVDRip
Формат видео: AVI
Видео: 704x304 (2.35:1), 23.976 fps, XviD build 67 ~1824 kbps avg, 0.355 bit/pixel
Аудио 1: 48 kHz, AC3 Dolby Digital, 2/0 (L,R) ch, ~192 kbps | Одноголосый закадровый (Виктор Береговых)
Аудио 2: 48 kHz, AC3 Dolby Digital, 2/0 (L,R) ch, ~192 kbps | Китайский
Формат субтитров: softsub (SRT)

MediaInfo

Melodiya.lyubvi.1978.DVDRip\Melodiya.lyubvi.1978.DVDRip.aviФормат : AVIФормат/Информация : Audio Video InterleaveРазмер файла : 1,37 ГбайтПродолжительность : 1 ч. 28 м.Общий поток : 2222 Кбит/секНазвание фильма : Мелодия любви / Bao jian ta / Melody of Love (1978) DVDRipРежиссёр : Тун Фей Моу / Tun Fei MouЖанр : Мелодрама, комедияПрограмма кодирования : VirtualDubMod 1.5.10.2 (build 2542/release)Формат оригинала/Имя : Художественный фильмАвторское право : Гонконг, Тайвань, Shaw BrothersПримечание : Rip by vitolinform
ВидеоИдентификатор : 0Формат : MPEG-4 VisualПрофиль формата : Advanced Simple@L5Настройки формата : BVOP2Параметр BVOP формата : 2Параметр QPel формата : НетПараметр GMC формата : Без точки переходаПараметр матрицы формата : Default (MPEG)Идентификатор кодека : XVIDИдентификатор кодека/Подсказка : XviDПродолжительность : 1 ч. 28 м.Битрейт : 1824 Кбит/секШирина : 704 пикселяВысота : 304 пикселяСоотношение сторон : 2,35:1Частота кадров : 23,976 (24000/1001) кадра/секЦветовое пространство : YUVСубдискретизация насыщенности : 4:2:0Битовая глубина : 8 битТип развёртки : ПрогрессивнаяМетод сжатия : С потерямиБит/(Пиксели*Кадры) : 0.355Размер потока : 1,12 Гбайт (82%)Библиотека кодирования : XviD 67
Аудио #1Идентификатор : 1Формат : AC-3Формат/Информация : Audio Coding 3Коммерческое название : Dolby DigitalИдентификатор кодека : 2000Продолжительность : 1 ч. 28 м.Вид битрейта : ПостоянныйБитрейт : 192 Кбит/секКаналы : 2 каналаChannelLayout : L RЧастота : 48,0 КГцЧастота кадров : 31,250 кадров/сек (1536 SPF)Битовая глубина : 16 битМетод сжатия : С потерямиРазмер потока : 121 Мбайт (9%)Выравнивание : Разделение по промежуткамПродолжительность промежутка : 42 мс. (1,00 видеокадр)Время предзагрузки промежутка : 500 мс.Заголовок : Russian (VO Виктор Береговых)ServiceKind/String : Complete Main
Аудио #2Идентификатор : 2Формат : AC-3Формат/Информация : Audio Coding 3Коммерческое название : Dolby DigitalИдентификатор кодека : 2000Продолжительность : 1 ч. 28 м.Вид битрейта : ПостоянныйБитрейт : 192 Кбит/секКаналы : 2 каналаChannelLayout : L RЧастота : 48,0 КГцЧастота кадров : 31,250 кадров/сек (1536 SPF)Битовая глубина : 16 битМетод сжатия : С потерямиРазмер потока : 121 Мбайт (9%)Выравнивание : Разделение по промежуткамПродолжительность промежутка : 42 мс. (1,00 видеокадр)Время предзагрузки промежутка : 500 мс.Заголовок : ChineseServiceKind/String : Complete Main

Скриншот c названием фильма

Скриншоты

[ru-zerkalo.org]_t_5841808
Torrent: Registered ·  [ 2020-01-27 23:03 ] ·  a2be71f8d701866d5280f3e73adaa08357c649b4

14 KB

Status: checked
Completed: 0 times
Size: 1.37 GB
Rating: 
(Votes: 0)
Say thanks: 0  Thanks
 
Похожие темы
[Profile] [PM]
Display posts from previous:    
Reply to topic

The time now is: Today 10:05

All times are GMT + 7 Hours



You cannot post new topics in this forum
You cannot reply to topics in this forum
You cannot edit your posts in this forum
You cannot delete your posts in this forum
You cannot vote in polls in this forum
You cannot attach files in this forum
You can download files in this forum