Register · 
Username: Password:
 ·  Forgot password?

Там, где затаилось зло / Там, где покоится зло / Where Evil Lies (Кевин Альбер / Kevin Alber) [1995, США, Эротический триллер, VHSRip] AVO (Михаил Иванов v2) + Original Eng

Reply to topic
DL-List and Torrent activity [Update пиров]
Size:  1.34 GB   |    Registered:  1 month   |    Completed:  0 times

Seeder not seen: Never

 
   
 
 
 
Author Message

FragoMan ®

Gender:

Longevity: 6 years 5 months

Posts: 25184

Post 28-Jan-2020 01:07

[Quote]

Там, где затаилось зло / Там, где покоится зло / Where Evil Lies
Страна: США
Жанр: Эротический триллер
Год выпуска: 1995
Продолжительность: 01:21:10
Перевод: Авторский (одноголосый закадровый) Михаил Иванов (другой вариант)
Субтитры: нет
Оригинальная аудиодорожка: английский
Режиссер: Кевин Альбер / Kevin Alber
В ролях: Эмиль Левисетти, Марк Кинси Стефенсон, Мелисса Парк, Никки Фриц, Ingrid Sthare,
Трэйси Уильямс, Боб МакФарланд, Питер Конти, Рома Чугани, Джойс Вестергард
Описание: Сын богатого преступника, помогает отцу в торговле белыми рабынями. Он посылает в
ночной стрип-клуб «Тигр» симпатичных девушек для работы у шеста, а там им подсыпают в
спиртное снотворное и отправляют заказчикам. Друг злодея, чью жену тоже отправили по этому
адресу, разоблачает негодяев и освобождает несчастных девушек.
Доп. информация: Дорожка с М. Ивановым синхронизирована и наложена ale_x2008 при помощи Sony Vegas и VirtualDubMod.
За оцифрованную с VHS дорожку благодарим - alenavova


Сэмпл: http://yadi.sk/i/-0FaRQJ79p8wLw
Качество видео: VHSRip
Формат видео: AVI
Видео: 624x464 (1.34:1), 23.976 fps, XviD Final 1.1 (build 41) ~1959 kbps avg, 0.28 bit/pixel
Аудио: AC3 Dolby Digital, 48000Hz 2/0 (L,R) ch (mono), 192 kbps avg
Аудио 2: AC3 Dolby Digital, 48000Hz 2/0 (L,R) ch, 192 kbps avg

MediaInfo

Там, где покоится зло - Where Evil Lies [by ale_x2008].aviFormat : AVIFormat/Info : Audio Video InterleaveFile size : 1.34 GiBDuration : 1 h 21 minOverall bit rate : 2 358 kb/sMovie name : Там, где покоится зло - Where Evil Lies [by ale_x2008]Director : by ale_X2008Writing application : VirtualDubMod 1.5.10.2 (build 2540/release)Copyright : Edich2Comment :
VideoID : 0Format : MPEG-4 VisualFormat profile : Advanced Simple@L5Format settings : BVOP2Format settings, BVOP : 2Format settings, QPel : NoFormat settings, GMC : No warppointsFormat settings, Matrix : Default (MPEG)Codec ID : XVIDCodec ID/Hint : XviDDuration : 1 h 21 minBit rate : 1 960 kb/sWidth : 624 pixelsHeight : 464 pixelsDisplay aspect ratio : 4:3Frame rate : 23.976 (24000/1001) FPSColor space : YUVChroma subsampling : 4:2:0Bit depth : 8 bitsScan type : ProgressiveCompression mode : LossyBits/(Pixel*Frame) : 0.282Stream size : 1.11 GiB (83%)Writing library : XviD 1.1.0 (UTC 2005-11-22)
Audio #1ID : 1Format : AC-3Format/Info : Audio Coding 3Codec ID : 2000Duration : 1 h 21 minBit rate mode : ConstantBit rate : 192 kb/sChannel(s) : 2 channelsChannel positions : Front: L RSampling rate : 48.0 kHzFrame rate : 31.250 FPS (1536 SPF)Bit depth : 16 bitsCompression mode : LossyStream size : 111 MiB (8%)Alignment : Split accross interleavesInterleave, duration : 42 ms (1.00 video frame)Interleave, preload duratio : 500 msService kind : Complete Main
Audio #2ID : 2Format : AC-3Format/Info : Audio Coding 3Codec ID : 2000Duration : 1 h 21 minBit rate mode : ConstantBit rate : 192 kb/sChannel(s) : 2 channelsChannel positions : Front: L RSampling rate : 48.0 kHzFrame rate : 31.250 FPS (1536 SPF)Bit depth : 16 bitsCompression mode : LossyStream size : 111 MiB (8%)Alignment : Aligned on interleavesInterleave, duration : 42 ms (1.00 video frame)Interleave, preload duratio : 512 msService kind : Complete Main

Скриншоты



[ru-zerkalo.org]_t_5841933
Torrent: Registered ·  [ 2020-01-28 01:07 ] ·  889db6d0b4146e8855dfe2601e9aa7c3a1f62536

14 KB

Status: checked
Completed: 0 times
Size: 1.34 GB
Rating: 
(Votes: 0)
Say thanks: 0  Thanks
 
Похожие темы
[Profile] [PM]
Display posts from previous:    
Reply to topic

The time now is: Today 10:10

All times are GMT + 7 Hours



You cannot post new topics in this forum
You cannot reply to topics in this forum
You cannot edit your posts in this forum
You cannot delete your posts in this forum
You cannot vote in polls in this forum
You cannot attach files in this forum
You can download files in this forum