Register · 
Username: Password:
 ·  Forgot password?

(Blues) Юрий Наумов - Московский Буги - 1994 (издан 2000), APE (image+.cue), lossless

Reply to topic
DL-List and Torrent activity [Update пиров]
Size:  314 MB   |    Registered:  2 years 8 months   |    Completed:  1 time

Seeder not seen: 1 year 9 months

 
   
 
 
 
Author Message

god56 ®

Gender:

Longevity: 6 years 4 months

Posts: 26204

Post 23-May-2017 17:27

[Quote]

Юрий Наумов / Московский Буги
Жанр: Blues
Страна-производитель диска: Россия
Год издания диска: 1994 (издан 2000)
Номер по каталогу: YN2
Страна: USA
Аудиокодек: APE (*.ape)
Тип рипа: image+.cue
Битрейт аудио: lossless
Продолжительность: 01:04:36
Источник (релизер): lossless-galaxy.ru (ley-barmaley)
Наличие сканов в содержимом раздачи: да
Треклист:
1. Московский буги
2. Поролоновый город
3. Никак не похоже на блюз
4. Возвращение Блудного сына
5. Пинг-понг блюз
6. Звездная ночь
7. Я собрался не туда
8. Дорога назад
9. Нью-Йорк, 5-я авеню
10. Сказка о Карле
11. Театр Станиславского

Лог создания рипа

Exact Audio Copy V0.99 prebeta 5 from 4. May 2009
Отчёт EAC об извлечении, выполненном 27. июня 2010, 12:44
Yuri Naumov / Moscow Boogie
Дисковод: ASUS DRW-1814BL Adapter: 0 ID: 0
Режим чтения : ДостоверностьИспользование точного потока : ДаОтключение кэша аудио : ДаИспользование указателей C2 : Нет
Коррекция смещения при чтении : 6Способность читать области Lead-in и Lead-out : НетЗаполнение пропущенных сэмплов тишиной : ДаУдаление блоков с тишиной в начале и конце : НетПри вычислениях CRC использовались нулевые сэмплы : ДаИнтерфейс : Встроенный Win32-интерфейс для Win NT/2000
Выходной формат : Внутренние WAV-операцииФормат сэмплов : 44.100 Гц; 16 бит; стерео
TOC извлечённого CD
Трек | Старт | Длительность | Начальный сектор | Конечный сектор --------------------------------------------------------------------- 1 | 0:00.00 | 5:28.65 | 0 | 24664 2 | 5:28.65 | 7:00.03 | 24665 | 56167 3 | 12:28.68 | 3:43.27 | 56168 | 72919 4 | 16:12.20 | 5:59.35 | 72920 | 99879 5 | 22:11.55 | 4:28.00 | 99880 | 119979 6 | 26:39.55 | 3:26.00 | 119980 | 135429 7 | 30:05.55 | 3:27.63 | 135430 | 151017 8 | 33:33.43 | 12:51.55 | 151018 | 208897 9 | 46:25.23 | 4:13.40 | 208898 | 227912 10 | 50:38.63 | 5:05.17 | 227913 | 250804 11 | 55:44.05 | 8:51.43 | 250805 | 290672
Характеристики диапазона извлечения и сообщения об ошибках
Выбранный диапазон
Имя файла G:\Yuri Naumov - Moscow Boogie.wav
Пиковый уровень 87.7 % Качество диапазона 100.0 % CRC копии 370E4FCC Копирование... OK
Ошибок не произошло
AccurateRip: сводка
Трек 1 точное извлечение (доверие 2) [E5D9BA3D]Трек 2 точное извлечение (доверие 2) [353D99AD]Трек 3 точное извлечение (доверие 2) [B347B1A0]Трек 4 точное извлечение (доверие 2) [202B3059]Трек 5 точное извлечение (доверие 2) [46CD63E4]Трек 6 точное извлечение (доверие 2) [F4C0D59D]Трек 7 точное извлечение (доверие 2) [C944AD0D]Трек 8 точное извлечение (доверие 2) [F6B62333]Трек 9 точное извлечение (доверие 2) [9ACFF678]Трек 10 точное извлечение (доверие 2) [E41E2235]Трек 11 точное извлечение (доверие 2) [D09D8576]
Все треки извлечены точно
Конец отчёта
[ru-zerkalo.org]_t_3803822
Torrent: Registered ·  [ 2017-05-23 17:25 ] ·  5cbff317cb0adb6a5750bd7a3719782607cdd225

13 KB

Status: checked
Completed: 1 times
Size: 314 MB
Rating: 
(Votes: 0)
Say thanks: 0  Thanks
 
Похожие темы
[Profile] [PM]
Display posts from previous:    
Reply to topic

The time now is: Today 03:36

All times are GMT + 7 Hours



You cannot post new topics in this forum
You cannot reply to topics in this forum
You cannot edit your posts in this forum
You cannot delete your posts in this forum
You cannot vote in polls in this forum
You cannot attach files in this forum
You can download files in this forum