Register · 
Username: Password:
 ·  Forgot password?

BBC : Символика церквей (6 серий) /Churches: How to Read Them ( Джонатан Майо / Jonathan Mayo, Карен Селвэй / Karen Selway ) [2010, документальный, познавательный, архитектура, искусство, христианство, DVB]

Reply to topic
DL-List and Torrent activity [Update пиров]
Size:  3.07 GB   |    Registered:  2 years 8 months   |    Completed:  1 time

Seeder not seen: 2 years 5 months

 
   
 
 
 
Author Message

Shadow123 ®

Gender:

Longevity: 6 years 4 months

Posts: 15358

Post 11-May-2017 00:07

[Quote]

BBC : Символика церквей (6 серий) / Churches: How to Read Them
Дата/Год выпуска: 2010
Страна: Великобритания
Жанр: документальный, познавательный, архитектура, искусство, христианство
Продолжительность: серии по ~ 29 минут
Перевод: Профессиональный (двухголосый закадровый)
Доп. инфо о переводе: ТПО Ред-Медиа
Режиссер: Джонатан Майо / Jonathan Mayo, Карен Селвэй / Karen Selway
Телеканал: 365 дней
Описание: Документальный фильм "Символика церквей" познакомит нас с церквями с архитектурной точки зрения. Церковные колокола оглашали своим звоном средневековую Британию, люди просыпались, молились и работали под их звучание. Христианская церковь регламентировала каждый час жизни прихожан. Она задавала ритм жизни человека от рождения до смерти. Жизнь в средневековых церквях била ключом, зачастую даже в очень непривычном виде. Изначально церковь служила простым прикрытием для алтаря, который был необходим для причащения. Первые церкви были примитивными и грубо построенными. Но Средневековье стало эпохой расцвета церковного зодчества. Передача расскажет о церквях с архитектурно-декоративной точки зрения - что означает церковная символика, как устройство церкви менялось со временем, как они взаимодействовали со светской культурой, как на них влияло развитие общества.
Доп. информация:
"...Каждый элемент церкви вызывает новые вопросы: что значит буква M, почему купель находится на западном конце церкви, а алтарь в восточном? Да и зачем вообще нужен алтарь?...В подобных сооружениях воплощена многовековая история. Зайдите в любую церковь - и у вас возникнут такие же вопросы…Мы разучились понимать язык этих строений, и в результате они стали нам казаться загадочными и непонятными. Будучи автором книг о значении церквей, я поставил перед собой задачу расшифровать этот язык, потому что церкви не должны быть загадкой. Они не только построены во славу Господа, но и рассказывают многое о нас самих. В этом цикле передач я расскажу о значении британского христианского искусства и символизма, по-новому взглянув на надежды, страхи и верования наших предков. Я хочу развенчать стереотипы, согласно которым церкви – это лишь пыльные музеи и головоломки для Дэна Брауна. На самом деле в церковных сооружениях заложена восхитительная красота, она присутствует в их цветах, в их просторных помещениях, в их формах. Церковь – это попытка людей, используя все свои скромные умения, создать рай на земле…" (Автор и ведущий Ричард Тэйлор)
Сэмпл 1: http://sendfile.su/1125414
Сэмпл 2: http://sendfile.su/1125417
качество: DVB
формат: MPG
Видео: Video: MPEG2 Video 720x576 (4:3) 25fps 15000kbps [V: mpeg2 main, yuv420p, 720x576, 15000 kb/s]
Аудио: Audio: MPEG Audio 48000Hz stereo 192kbps [A: mp2, 48000 Hz, stereo, 192 kb/s]

Список выпусков/серий

1. Сумрачное начало
2. Средневековая Жизнь
3. Средневековое восприятие смерти
4. Реформация: разрушение и создание
5. Реставрация и век разума
6. Викторианская эпоха и все, что было потом

MediaInfo

GeneralComplete name : F:\Символика церквей\6. Викторианская эпоха и все, что было потом.mpgFormat : MPEG-PSFile size : 543 MiBDuration : 29mn 1sOverall bit rate mode : VariableOverall bit rate : 2 615 Kbps
VideoID : 224 (0xE0)Format : MPEG VideoFormat version : Version 2Format profile : Main@MainFormat settings, BVOP : YesFormat settings, Matrix : CustomFormat settings, GOP : VariableFormat settings, picture struc : FrameDuration : 29mn 1sBit rate mode : VariableBit rate : 2 371 KbpsMaximum bit rate : 15.0 MbpsWidth : 720 pixelsHeight : 576 pixelsDisplay aspect ratio : 4:3Frame rate : 25.000 fpsStandard : PALColor space : YUVChroma subsampling : 4:2:0Bit depth : 8 bitsScan type : InterlacedScan order : Top Field FirstCompression mode : LossyBits/(Pixel*Frame) : 0.229Time code of first frame : 00:00:00:00Time code source : Group of pictures headerStream size : 492 MiB (91%)
AudioID : 192 (0xC0)Format : MPEG AudioFormat version : Version 1Format profile : Layer 2Duration : 29mn 1sBit rate mode : ConstantBit rate : 192 KbpsChannel(s) : 2 channelsSampling rate : 48.0 KHzCompression mode : LossyDelay relative to video : 24msStream size : 39.9 MiB (7%)
Другие мои раздачи: архитектура, недвижимость, живопись [url=tracker.php?rid=8171303]http:///forum/tracker.php?rid=8171303[/url]
[ru-zerkalo.org]_t_5018685
Torrent: Registered ·  [ 2017-05-11 00:05 ] ·  2eea117a32f151a433b2d8491f551b0d8421ee1b

16 KB

Status: checked
Completed: 1 times
Size: 3.07 GB
Rating: 
(Votes: 0)
Say thanks: 0  Thanks
 
Похожие темы
[Profile] [PM]
Display posts from previous:    
Reply to topic

The time now is: Today 05:16

All times are GMT + 7 Hours



You cannot post new topics in this forum
You cannot reply to topics in this forum
You cannot edit your posts in this forum
You cannot delete your posts in this forum
You cannot vote in polls in this forum
You cannot attach files in this forum
You can download files in this forum