Register · 
Username: Password:
 ·  Forgot password?

Наруто: Большой спортивный фестиваль Конохи / Naruto: Konoha no Sato no Dai Undoukai [OVA] [1 из 1] [без хардсаба] [JAP+SUB] [2004, комедия, HDTVRip] [720p]

Reply to topic
DL-List and Torrent activity [Update пиров]
Size:  288 MB   |    Registered:  2 years 7 months   |    Completed:  0 times

Seeder not seen: 4 days

 
   
 
 
 
Author Message

manic-manic ®

Gender:

Longevity: 6 years 3 months

Posts: 14192

Post 26-May-2017 13:32

[Quote]

Наруто (Минифильм 1): Cпортивный фестиваль Деревни Скрытого Листа! / Naruto MiniMovie: Konoha Sports Festival
-Год выпуска: 2004.
Страна: Япония.
Жанр: боевые искусства, приключения, комедия, сёнэн.
Продолжительность: Минифильм, 11 мин.
Перевод: Cубтитры
Субтитры: русские, от Alex & Julia
Перевод: Alex Редактор: Julia Корректирование: Hassadar Тайминг: Alex Оформление: Alex-Режиссер: Датэ Хаято-Описание: Эту короткометражку демонстрировали в японских кинотеатрах перед первым полнометражным фильмом Naruto (Gekijouban Naruto: Dai Katsugeki! Yuki Hime Ninpouchou Datte ba yo!). По сюжету спэшл не имеет ничего общего с основным сериалом.-Качество: HDTVRip 720p [SOFCJ-Raws]
Скачать: Cэмпл
Формат видео: MKV
Видео кодек: H.264
Аудио кодек: AC3
Видео: MPEG4 Video (H264) 1280x688 23.976fps 8bit 3418 Кбит/сек
Аудио: Dolby AC3 48000Hz stereo 2ch 192 Кбит/сек
Субтитры: Русские .ass (отдельным файлом)
MediaInfo">

Скриншоты MediaInfo


Формат : MatroskaВерсия формата : Version 4 / Version 2Размер файла : 288 МбайтПродолжительность : 10 м.Общий поток : 3684 Кбит/секДата кодирования : UTC 2010-02-22 21:41:31Программа кодирования : mkvmerge v5.9.0 ('On The Loose') built on Dec 9 2012 15:37:01Библиотека кодирования : libebml v1.3.0 + libmatroska v1.4.0
ВидеоИдентификатор : 1Формат : AVCФормат/Информация : Advanced Video CodecПрофиль формата : High@L4.0Параметр CABAC формата : ДаПараметр ReFrames формата : 6 кадровИдентификатор кодека : V_MPEG4/ISO/AVCПродолжительность : 10 м.Битрейт : 3418 Кбит/секШирина : 1280 пикселейВысота : 688 пикселейСоотношение сторон : 1,85:1Режим частоты кадров : ПостоянныйЧастота кадров : 23,976 кадра/секЦветовое пространство : YUVСубдискретизация насыщенности : 4:2:0Битовая глубина : 8 битТип развёртки : ПрогрессивнаяБит/(Пиксели*Кадры) : 0.162Размер потока : 267 Мбайт (93%)Библиотека кодирования : x264 core 140 r2377+40 929f149 tMod [8-bit@all X86_64]Default : ДаForced : НетОсновные цвета : BT.709Характеристики трансфера : BT.709Коэффициенты матрицы : BT.709
АудиоИдентификатор : 2Формат : AC-3Формат/Информация : Audio Coding 3Расширение режима : CM (complete main)Параметр Endianness формата : BigИдентификатор кодека : A_AC3Продолжительность : 10 м.Вид битрейта : ПостоянныйБитрейт : 192 Кбит/секКаналы : 2 каналаРасположение каналов : Front: L RЧастота : 48,0 КГцБитовая глубина : 16 битМетод сжатия : С потерямиЗадержка видео : 100 мс.Размер потока : 15,0 Мбайт (5%)Default : ДаForced : Нет

Отличия от существующих раздач

Там DVDRip'ы
http:///forum/viewtopic.php?t=3819898
http:///forum/viewtopic.php?t=3950897
http:///forum/viewtopic.php?t=3740605
тут HDTVRip 720p
Раздачи SOFCJ по вселенной "Наруто"
  • Наруто: Ураганные хроники · HDTVRip 720p · HDTVRip HWP
    • Фильмы ::
    • Защитить принцессу страны Снега · HDTVRip 720p · BDRip 720p · BDRip 1080p - после 100 эп.
    • Призрачные руины в недрах земли · HDTVRip 720p · BDRip 720p · BDRip 1080p - после 141 эп.
    • Бунт зверей на острове Месяца · HDTVRip 720p · BDRip 720p · BDRip 1080p - после 147 эп.
    • фильм первый · BDRip 1080p · BDRemux 1080i - после 32 эп.
    • Узы · BDRip 1080p · BDRemux 1080p - после 71 эп.
    • Наследники Воли Огня · BDRemux 1080p - после 120 эп.
    • Затерянная башня · DVDRip · HDTVRip 720p · BDRip 720p · BDRip 1080p · BDRemux 1080p - после 171 эп.
    • Кровавая тюрьма · DVDRip · HDTVRip 720p · BDRip 720p · BDRip 1080p · BDRemux 1080i - после 222 эп.
    • Путь ниндзя · BDRip 720p · BDRip 1080p · BDRemux 1080p - после 271 эп. | Пролог 311 эп.
    • 2 0 1 4 · релиз на DVD и Blu-ray в 2015 г.
  • ОВА ::
  • Поиски четырёхлистного алого клевера - после 19 эп.
  • Отчаянная схватка в деревне Скрытого Водопада: я герой! · DVDRip - после 53 эп.
  • Большой спортивный фестиваль Конохи · HDTVRip 720p · BDRip 720p · BDRip 1080p - доп. к 1-ому фильму
  • Наконец-то схватка! Джонины против генинов!! Большой бойцовский турнир!! · DVDRip - после 100 эп.
  • Пересечение дорог - после 19 эп., но лучше см. после 36 эп., а вот по окончанию титров - после половины 142 эп.
  • Джин и три желания!! · BDRip 720p · BDRip 1080p · BDRemux 1080p - доп. к 7-ому фильму / после 100 эп.
  • Наруто x UT - музыкально видео · DVDRip · DVD5 - после 253 эп.
  • Пылающий экзамен на чунина! Наруто против Конохамару!! · BDRip 720p · BDRemux 1080i - доп. к 8-ому фильму
    • Серия анимационных роликов из игры "Ultimate Ninja Storm Generations"
  • Братья Учиха, Мангекьё Шаринган, курочки и глазунья!
    • Серия анимационных роликов из игры "Ultimate Ninja Storm Revolution"
Прим.: ТВ-1 | ТВ-2Раздачи SOFCJ по вселенной "Ван-Пис"
  • Ван-Пис
    • Фильмы ::
    • The Great Gold Pirate - после 18 эп.
    • Clockwork Island Adventure - после 45 эп.
    • Chopper’s Kingdom on the Island of Strange Animals - после 95 эп.
    • Dead End Adventure · BDRemux 1080p - после 146 эп.
    • The Cursed Holy Sword · BDRemux 1080p - после 183 эп.
    • Baron Omatsuri and the Secret Island · BDRip 720p · BDRemux 1080p - после 224 эп.
    • Giant Mecha Soldier of Karakuri Castle · BDRip 720p · BDRemux 1080p - после 268 эп.
    • The Desert Princess and the Pirates: Adventures in Alabasta · BDRip 1080p · BDRemux 1080p - компиляция 93-130 эп.
    • Episode of Chopper Plus: Bloom in the Winter, Miracle Cherry Blossom · BDRip 720p · BDRip 1080p · BDRemux 1080p - компиляция 78-92 эп.
    • Strong World · BDRemux 1080p - после 429 эп.
    • Film Z · BDRemux 1080p - после 578 эп.
  • Спешлы ::
    • Episode of Nami · BDRip 1080p - компиляция 31-45 эп.
    • Episode of Luffy: Hand Island Adventure · HDTVRip 720p · BDRip 720p · BDRip 1080p · BDRemux 1080i - после 578 эп.
[ru-zerkalo.org]_t_4634310
Torrent: Registered ·  [ 2017-05-26 13:30 ] ·  bf7a800f2b1a5755cf37364df816f6b3f91b6e10

12 KB

Status: checked
Completed: 0 times
Size: 288 MB
Rating: 
(Votes: 0)
Say thanks: 0  Thanks
 
Похожие темы
[Profile] [PM]
Display posts from previous:    
Reply to topic

The time now is: Today 07:14

All times are GMT + 7 Hours



You cannot post new topics in this forum
You cannot reply to topics in this forum
You cannot edit your posts in this forum
You cannot delete your posts in this forum
You cannot vote in polls in this forum
You cannot attach files in this forum
You can download files in this forum