Register · 
Username: Password:
 ·  Forgot password?

(Trance) [WEB, CD] Orkidea Discography / Orkidea Дискография (10 Albums, 2 Compilations, 29 Singles, 26 Remixes, 7 Tracks) - 2003-2017, FLAC (tracks, image+.cue, track+.cue), lossless

Reply to topic
DL-List and Torrent activity [Update пиров]
Size:  15.98 GB   |    Registered:  2 years 7 months   |    Completed:  2 times

Seeder not seen: 2 months 30 days

 
   
 
 
 
Author Message

Dimas28 ®

Gender:

Longevity: 6 years 3 months

Posts: 23827

Post 31-May-2017 16:49

[Quote]

-- -- -- -- группы:
Жанр: Trance, Progressive House
Носитель: WEB, CD
Страна исполнителя: (Finland)
Год издания: 2003-2017
Аудиокодек: FLAC (*.flac)
Тип рипа: tracks, tracks+cue, image+cue
Битрейт аудио: lossless
Продолжительность: 01:12:52:42
Источник (релизер): What, Rutracker, Beatport.
Наличие сканов в содержимом раздачи: да
Биография:--Горячий финский парень Тапио Хаканен (Tapio Hakanen) больше известен в танцевальных кругах как ди-джей и продюсер под цветочным псевдонимом DJ Orkidea. За свою карьеру, начиная с ранних 90-х (когда рейв-культура в Финляндии была ещё андерграундом), Оркидеа достиг многих высот — среди которых выступления на одной сцене с The Prodigy, Chemical Brothers, Underworld, мировые турне, многочасовые сеты в лучших клубах планеты (Tresor, Pacha, Ministry of Sound, Gatecrasher), попадание в рейтинг ди-джеев журнала DJ MAG и главенствование в аналогичном рейтинге родной Скандинавии. На данный момент Оркидеа является лидером среди ди-джеев по версии интернет-ресурса Megamind. se. Свой дебютный альбом с загадочным названием Taika Оркидеа выпустил почти 5 лет назад — вспоминается ветка орхидей на обложке и трек «Beautiful», который по сей день будоражит танцполы планеты. Непрерывная работа, клубные выступления, покорение слушателя, и вот — его вторая авторская работа уже завершена и готовится к выходу в свет. При определении названия альбома, на продюсера повлиял сюжет романа «самого крутого фантаста Америки» Нила Стивенсона — «Лавина». Связь одного мира внутри другого, равно как и переплетения отдельных треков во внутренней жизни альбома, по замыслу автора, сможет удачно взломать почти все кирпичные стены музыкальных канонов и наполнить звуки дозой свежего настроения. Вот так, отчасти с философским уклоном, Orkidea подошёл к созданию своего очередного шедевра, именованного Metaverse. 10 треков вошли в новый альбом: некоторые из них авторские, несколько были написаны совместно с известными в мире танцевальной музыки продюсерами Solarstone, David West, Andy Moor, Lowland. В альбом также вошёл ремикс Orkidea на работу финской готической группы Nightwish.--

Благодарности.[b]Перья[/b], [b]vampirul_18[/b], [b][color=red]SQ11[/color][/b], [b]Trance master[/b], [b]The Infinite Instant[/b], [b]GG.Angel[/b], [b]Gogium[/b], [b]alcgainer[/b], [b]Илья181[/b], [b][color=red]fareng8[/color][/

Albums(2003) DJ Orkidea - Taika (Selected Works '98 - '03) (Universal [981 363-6])

Источник (релизер): The Infinite Instant
Жанр: Trance
Носитель: CD
Страна-производитель диска: (Finland)
Год издания: 2003
Издатель (лейбл): Universal
Номер по каталогу: 981 363-6
Аудиокодек: FLAC (*.flac)
Тип рипа: track+.cue
Битрейт аудио: lossless
Продолжительность: 01:12:27
Наличие сканов в содержимом раздачи: Да, png, 600dpi
Треклист:-01. Orkidea - Inner Peace (7:59)
03. Rank 1 - Airwave (Album Cut) (5:01)
02. Orkidea - Unity (10:13)
05. Rank 1 - T.T.C. (4:17)
03. Orkidea - Beautiful (7:31)
04. DJ Orkidea feat. Valeska - Melancholy (10:08)
05. Space Manoeuvres - Stage One (DJ Orkidea Remix) (9:14)
06. DJ Tiesto - Flight 643 (DJ Orkidea's Wintergalactic Remix) (8:40)
07. Aalto - Rush (Super8 vs. Orkidea Remix) (7:52)
08. Leama - Labyrinth (DJ Orkidea Remix) (10:47)-

Лог создания рипа

Exact Audio Copy V1.0 beta 3 from 29. August 2011
EAC extraction logfile from 31. October 2011, 17:55
DJ Orkidea / Taika (Selected Works '98-'03)
Used drive : ATAPI DVD A DH16ABSH Adapter: 1 ID: 1
Read mode : SecureUtilize accurate stream : YesDefeat audio cache : YesMake use of C2 pointers : No
Read offset correction : 6Overread into Lead-In and Lead-Out : NoFill up missing offset samples with silence : YesDelete leading and trailing silent blocks : NoNull samples used in CRC calculations : YesUsed interface : Native Win32 interface for Win NT & 2000Gap handling : Appended to previous track
Used output format : User Defined EncoderSelected bitrate : 128 kBit/sQuality : HighAdd ID3 tag : YesCommand line compressor : C:\Program Files\Exact Audio Copy\Flac\flac.exeAdditional command line options : -8 -V -T "ARTIST=%artist%" -T "TITLE=%title%" -T "ALBUM=%albumtitle%" -T "DATE=%year%" -T "TRACKNUMBER=%tracknr%" -T "GENRE=%genre%" -T "PERFORMER=%albuminterpret%" -T "COMPOSER=%composer%" %haslyrics%--tag-from-file=LYRICS="%lyricsfile%"%haslyrics% -T "ALBUMARTIST=%albumartist%" -T "DISCNUMBER=%cdnumber%" -T "TOTALDISCS=%totalcds%" -T "TOTALTRACKS=%numtracks%" -T "COMMENT=%comment%" %source% -o %dest%
TOC of the extracted CD
Track | Start | Length | Start sector | End sector --------------------------------------------------------- 1 | 0:00.00 | 7:59.47 | 0 | 35971 2 | 7:59.47 | 10:13.30 | 35972 | 81976 3 | 18:13.02 | 7:31.39 | 81977 | 115840 4 | 25:44.41 | 10:08.01 | 115841 | 161441 5 | 35:52.42 | 9:14.70 | 161442 | 203061 6 | 45:07.37 | 8:40.43 | 203062 | 242104 7 | 53:48.05 | 7:52.06 | 242105 | 277510 8 | 61:40.11 | 10:47.63 | 277511 | 326098
Track 1
Filename I:\Ripping\01 Orkidea - Inner Peace.wav
Pre-gap length 0:00:02.00
Peak level 97.7 % Extraction speed 2.1 X Track quality 100.0 % Test CRC 5FABCF56 Copy CRC 5FABCF56 Accurately ripped (confidence 5) [0507066B] (AR v1) Copy OK
Track 2
Filename I:\Ripping\02 Orkidea - Unity.wav
Peak level 97.7 % Extraction speed 2.5 X Track quality 100.0 % Test CRC 8C00C8BF Copy CRC 8C00C8BF Accurately ripped (confidence 5) [FCE0C370] (AR v1) Copy OK
Track 3
Filename I:\Ripping\03 Orkidea - Beautiful.wav
Peak level 97.7 % Extraction speed 2.3 X Track quality 99.9 % Test CRC B15F5786 Copy CRC B15F5786 Accurately ripped (confidence 5) [433E132B] (AR v1) Copy OK
Track 4
Filename I:\Ripping\04 DJ Orkidea feat Valeska - Melancholy.wav
Peak level 97.7 % Extraction speed 3.2 X Track quality 100.0 % Test CRC C5D81772 Copy CRC A083E1FF Accurately ripped (confidence 3) [664710CE] (AR v1) Copy OK
Track 5
Filename I:\Ripping\05 Space Manoeuvres - Stage One (DJ Orkidea Remix).wav
Peak level 97.0 % Extraction speed 3.3 X Track quality 100.0 % Test CRC 932E1164 Copy CRC 932E1164 Accurately ripped (confidence 3) [29341F57] (AR v1) Copy OK
Track 6
Filename I:\Ripping\06 DJ Tiesto - Flight 643 (DJ Orkidea's Wintergalactic Remix).wav
Peak level 97.7 % Extraction speed 2.9 X Track quality 99.9 % Test CRC 8FCD1B6B Copy CRC 8FCD1B6B Accurately ripped (confidence 3) [99917365] (AR v1) Copy OK
Track 7
Filename I:\Ripping\07 Aalto - Rush (Super8 vs Orkidea Remix).wav
Peak level 97.7 % Extraction speed 3.1 X Track quality 99.9 % Test CRC D2552E47 Copy CRC D2552E47 Accurately ripped (confidence 3) [2E3A774B] (AR v1) Copy OK
Track 8
Filename I:\Ripping\08 Leama - Labyrinth (DJ Orkidea Remix).wav
Peak level 97.7 % Extraction speed 4.2 X Track quality 100.0 % Test CRC 1646A1F6 Copy CRC 1646A1F6 Accurately ripped (confidence 3) [1B0C49BF] (AR v1) Copy OK
All tracks accurately ripped
No errors occurred
End of status report
---- CUETools DB Plugin V2.1.3
[CTDB TOCID: ySoh5vDoRo0uCXBUslVaz.Garzk-] disk not present in database, Submit result: insufficient quality
==== Log checksum F2BE7A9259FB73227DBF5CA849DD72683D8CD4CEFFA3963B7F1C5F436F9A9A2A ====
------------------------------------------------------------
Exact Audio Copy V1.0 beta 3 from 29. August 2011
EAC extraction logfile from 31. October 2011, 18:04
DJ Orkidea / Taika (Selected Works '98-'03)
Used drive : ATAPI DVD A DH16ABSH Adapter: 1 ID: 1
Read mode : SecureUtilize accurate stream : YesDefeat audio cache : YesMake use of C2 pointers : No
Read offset correction : 6Overread into Lead-In and Lead-Out : NoFill up missing offset samples with silence : YesDelete leading and trailing silent blocks : NoNull samples used in CRC calculations : YesUsed interface : Native Win32 interface for Win NT & 2000Gap handling : Appended to previous track
Used output format : User Defined EncoderSelected bitrate : 128 kBit/sQuality : HighAdd ID3 tag : YesCommand line compressor : C:\Program Files\Exact Audio Copy\Flac\flac.exeAdditional command line options : -8 -V -T "ARTIST=%artist%" -T "TITLE=%title%" -T "ALBUM=%albumtitle%" -T "DATE=%year%" -T "TRACKNUMBER=%tracknr%" -T "GENRE=%genre%" -T "PERFORMER=%albuminterpret%" -T "COMPOSER=%composer%" %haslyrics%--tag-from-file=LYRICS="%lyricsfile%"%haslyrics% -T "ALBUMARTIST=%albumartist%" -T "DISCNUMBER=%cdnumber%" -T "TOTALDISCS=%totalcds%" -T "TOTALTRACKS=%numtracks%" -T "COMMENT=%comment%" %source% -o %dest%
TOC of the extracted CD
Track | Start | Length | Start sector | End sector --------------------------------------------------------- 1 | 0:00.00 | 7:59.47 | 0 | 35971 2 | 7:59.47 | 10:13.30 | 35972 | 81976 3 | 18:13.02 | 7:31.39 | 81977 | 115840 4 | 25:44.41 | 10:08.01 | 115841 | 161441 5 | 35:52.42 | 9:14.70 | 161442 | 203061 6 | 45:07.37 | 8:40.43 | 203062 | 242104 7 | 53:48.05 | 7:52.06 | 242105 | 277510 8 | 61:40.11 | 10:47.63 | 277511 | 326098
Track 4
Filename I:\Ripping\04 DJ Orkidea feat Valeska - Melancholy.wav
Peak level 97.7 % Extraction speed 2.9 X Track quality 99.9 % Test CRC A083E1FF Copy CRC A083E1FF Accurately ripped (confidence 3) [664710CE] (AR v1) Copy OK
All tracks accurately ripped
No errors occurred
End of status report
==== Log checksum 7560BDBE4E4CD584937E9CF07AC3DB518BD1D691E6BF2CCBB2DED18F29DB6AA4 ====

Содержание индексной карты (.CUE)

REM GENRE TranceREM DATE 2003REM DISCID 6010FB08REM COMMENT "ExactAudioCopy v1.0b3"PERFORMER "DJ Orkidea"TITLE "Taika (Selected Works '98-'03)"FILE "01 Orkidea - Inner Peace.wav" WAVE TRACK 01 AUDIO TITLE "Inner Peace" PERFORMER "Orkidea" ISRC FIDJO0300001 INDEX 01 00:00:00FILE "02 Orkidea - Unity.wav" WAVE TRACK 02 AUDIO TITLE "Unity" PERFORMER "Orkidea" ISRC FIDJO0300002 INDEX 01 00:00:00FILE "03 Orkidea - Beautiful.wav" WAVE TRACK 03 AUDIO TITLE "Beautiful" PERFORMER "Orkidea" ISRC FIDJO0300003 INDEX 01 00:00:00FILE "04 DJ Orkidea feat Valeska - Melancholy.wav" WAVE TRACK 04 AUDIO TITLE "Melancholy" PERFORMER "DJ Orkidea feat Valeska" ISRC FIDJO0300004 INDEX 01 00:00:00FILE "05 Space Manoeuvres - Stage One (DJ Orkidea Remix).wav" WAVE TRACK 05 AUDIO TITLE "Stage One (DJ Orkidea Remix)" PERFORMER "Space Manoeuvres" ISRC FIDJO0300005 INDEX 01 00:00:00FILE "06 DJ Tiesto - Flight 643 (DJ Orkidea's Wintergalactic Remix).wav" WAVE TRACK 06 AUDIO TITLE "Flight 643 (DJ Orkidea's Wintergalactic Remix)" PERFORMER "DJ Tiesto" ISRC FIDJO0300006 INDEX 01 00:00:00FILE "07 Aalto - Rush (Super8 vs Orkidea Remix).wav" WAVE TRACK 07 AUDIO TITLE "Rush (Super8 vs Orkidea Remix)" PERFORMER "Aalto" ISRC FIDJO0300007 INDEX 01 00:00:00FILE "08 Leama - Labyrinth (DJ Orkidea Remix).wav" WAVE TRACK 08 AUDIO TITLE "Labyrinth (DJ Orkidea Remix)" PERFORMER "Leama" ISRC FIDJO0300008 INDEX 01 00:00:00

(2005) DJ Orkidea - Music Speaks In Thousand Languages (Universal Music Group [987 609-7])

Источник (релизер): pijawka
Жанр: Trance
Носитель: WEB
Страна-производитель диска: (Finland)
Год издания: 2005
Издатель (лейбл): Universal Music Group
Номер по каталогу: 987 609-7
Аудиокодек: FLAC (*.flac)
Тип рипа: track
Битрейт аудио: lossless
Продолжительность: 01:12:07
Наличие сканов в содержимом раздачи: нет
Треклист:-01. DJ Orkidea - Have A Nice This Moment (Intro) (2:24)
02. DJ Orkidea - Beautiful (Ambient Mix) (4:51)
03. DJ Orkidea - Sparkles (7:58)
04. DJ Orkidea - Power Of Chi (7:24)
05. DJ Orkidea - Theme Isla Blanca (1:56)
06. DJ Orkidea feat. Valeska - Melancholy (Softys Mix) (4:07)
07. DJ Orkidea - Manchester 1992 (4:38)
08. DJ Orkidea - Dreams Are Free (7:09)
09. DJ Orkidea - Spacedubbedout (7:53)
10. DJ Orkidea - Oceania (6:20)
11. DJ Orkidea - Take Me Baby (7:21)
12. DJ Orkidea - Universal Music (3:39)
13. DJ Orkidea - Joutsenlaulu (6:22)- -

Лог проверки качества

-----------------------
DON'T MODIFY THIS FILE
-----------------------
PERFORMER: auCDtect Task Manager, ver. 1.6.0 RC1 build 1.6.0.1Copyright (c) 2008-2010 y-soft. All rights reservedhttp://y-soft.org
ANALYZER: auCDtect: CD records authenticity detector, version 0.8.2Copyright (c) 2004 Oleg Berngardt. All rights reserved.Copyright (c) 2004 Alexander Djourik. All rights reserved.
FILE: 06. DJ Orkidea feat. Valeska - Melancholy (Softys Mix).flac Size: 26577670 Hash: 4648BC47F85AEF3F3D8AC419AADE1DDF Accuracy: -m0 Conclusion: MPEG 95% Signature: D88BFAEF85D7D53C3705F1D7E88E58F2B605A143FILE: 05. DJ Orkidea - Theme Isla Blanca.flac Size: 13479923 Hash: C646416AE8A156A77B957C21F2CB9082 Accuracy: -m0 Conclusion: CDDA 100% Signature: 1CB04EA810FB7210990407757164F26289D7686EFILE: 04. DJ Orkidea - Power Of Chi.flac Size: 42892543 Hash: D4F8BDD6A4EA90E6869B75870A067E0D Accuracy: -m0 Conclusion: CDDA 99% Signature: 5D5D3F17C1D35F320E6E32907BBE050AFC461E00FILE: 03. DJ Orkidea - Sparkles.flac Size: 56798579 Hash: DE864052AC3B609E8FD02AF4BBA567DC Accuracy: -m0 Conclusion: CDDA 100% Signature: 254720934D2E8E594C0EEAB7299D95A347909139FILE: 02. DJ Orkidea - Beautiful (Ambient Mix).flac Size: 27817532 Hash: 5961B583978E8E9216F312931FE45A58 Accuracy: -m0 Conclusion: CDDA 100% Signature: 1147E66F56DC021FADC04F631D9D443C48510235FILE: 01. DJ Orkidea - Have A Nice This Moment (Intro).flac Size: 12669417 Hash: D60AD1BAF4F074386ACD9040F57798C3 Accuracy: -m0 Conclusion: CDDA 99% Signature: 542DB5188A27B281041CCA1B9C2F0F2DC2B0AF0FFILE: 13. DJ Orkidea - Joutsenlaulu.flac Size: 42852585 Hash: 79702ECB4C7DBFD496FF9B72BF138006 Accuracy: -m0 Conclusion: CDDA 100% Signature: CB9CE3273B19321877DA58F3A3917FF414EF0F4EFILE: 12. DJ Orkidea - Universal Music.flac Size: 24054073 Hash: CE8865670506377DBDCAA50878A7F6CA Accuracy: -m0 Conclusion: CDDA 100% Signature: 74110CD44249327ECB337045572CE1A2F2603A14FILE: 11. DJ Orkidea - Take Me Baby.flac Size: 50776287 Hash: D1CC619FF795D50128FBDD32B18C08A4 Accuracy: -m0 Conclusion: CDDA 100% Signature: 3B5B1CE9FAD935A1E539F556661155D0133C3FD3FILE: 10. DJ Orkidea - Oceania.flac Size: 37942995 Hash: AEFBE23BFCF43ED2EFC5E3CD32DC8673 Accuracy: -m0 Conclusion: CDDA 99% Signature: F1C16227574A4114EF8873B76CE8564BA1752B85FILE: 09. DJ Orkidea - Spacedubbedout.flac Size: 51706794 Hash: 6A83F08E7E7A5C814368F008807C408E Accuracy: -m0 Conclusion: CDDA 100% Signature: C6B9A78111B62BDD66369A0C428216CCBAF2E168FILE: 08. DJ Orkidea - Dreams Are Free.flac Size: 40639683 Hash: 938318E2D0455FB069A3EF833C4EF364 Accuracy: -m0 Conclusion: CDDA 100% Signature: 3294884E2916848D5211F3D84707B5CE85347979FILE: 07. DJ Orkidea - Manchester 1992.flac Size: 31830924 Hash: 110136CEFB11B09BDD4D41BFB639256E Accuracy: -m0 Conclusion: CDDA 100% Signature: EA3C70EB318BBB6DF2F32DFF1032620B4ECE0E67

(2008) DJ Orkidea - Metaverse (AVA Recordings [AVACD001])

Источник (релизер): fareng8 (Собственный диск.)
Жанр: Trance
Носитель: CD
Страна-производитель диска: (UK)
Год издания: 2008
Издатель (лейбл): AVA Recordings
Номер по каталогу: AVACD001
Аудиокодек: FLAC (*.flac)
Тип рипа: track+.cue
Битрейт аудио: lossless
Продолжительность: 01:17:22
Наличие сканов в содержимом раздачи: Да, png, 600dpi
Треклист:-01. Orkidea – Metaverse (6:41)
02. Andy Moor & Orkidea – Yearzero (7:24)
03. Orkidea – Free Dreams (6:07)
04. David West & Orkidea – God's Garden (7:45)
05. Solarstone & Orkidea – Slowmotion (6:36)
06. Orkidea – Stretching Time (8:05)
07. Lowland & Orkidea – Masochrist (6:37)
08. Way Out West – Killa (Orkidea vs Dallas Superstars Remix) (6:49)
09. Orkidea – Requiem (9:09)
10. Nightwish – Bye Bye Beautiful (Orkidea Remix) (12:06)-

Лог создания рипа

Exact Audio Copy V0.99 prebeta 5 from 4. May 2009
EAC extraction logfile from 25. April 2010, 14:10
DJ Orkidea / Metaverse
Used drive : Optiarc DVD RW AD-7170A Adapter: 0 ID: 1
Read mode : SecureUtilize accurate stream : YesDefeat audio cache : YesMake use of C2 pointers : No
Read offset correction : 48Overread into Lead-In and Lead-Out : NoFill up missing offset samples with silence : YesDelete leading and trailing silent blocks : NoNull samples used in CRC calculations : YesUsed interface : Native Win32 interface for Win NT & 2000Gap handling : Appended to previous track
Used output format : User Defined EncoderSelected bitrate : 32 kBit/sQuality : HighAdd ID3 tag : NoCommand line compressor : D:\Program Files\Exact Audio Copy\Flac\flac.exeAdditional command line options : -8 -V -T "ARTIST=%a" -T "TITLE=%t" -T "ALBUM=%g" -T "DATE=%y" -T "TRACKNUMBER=%n" -T "GENRE=%m" -T "COMMENT=ripped by fareng8" %s
TOC of the extracted CD
Track | Start | Length | Start sector | End sector --------------------------------------------------------- 1 | 0:00.00 | 6:41.47 | 0 | 30121 2 | 6:41.47 | 7:24.55 | 30122 | 63476 3 | 14:06.27 | 6:07.12 | 63477 | 91013 4 | 20:13.39 | 7:45.03 | 91014 | 125891 5 | 27:58.42 | 6:36.44 | 125892 | 155635 6 | 34:35.11 | 8:05.26 | 155636 | 192036 7 | 42:40.37 | 6:37.42 | 192037 | 221853 8 | 49:18.04 | 6:49.32 | 221854 | 252560 9 | 56:07.36 | 9:09.04 | 252561 | 293739 10 | 65:16.40 | 12:06.35 | 293740 | 348224
Track 1
Filename F:\Music\DJ Orkidea - Metaverse (AVACD001)- 2008\2\01. Orkidea – Metaverse.wav
Pre-gap length 0:00:02.00
Peak level 97.7 % Track quality 100.0 % Test CRC 8BB8F460 Copy CRC 8BB8F460 Accurately ripped (confidence 1) [E0AE6080] Copy OK
Track 2
Filename F:\Music\DJ Orkidea - Metaverse (AVACD001)- 2008\2\02. Andy Moor & Orkidea – Yearzero.wav
Peak level 97.7 % Track quality 100.0 % Test CRC EE889408 Copy CRC EE889408 Accurately ripped (confidence 1) [EDAB6458] Copy OK
Track 3
Filename F:\Music\DJ Orkidea - Metaverse (AVACD001)- 2008\2\03. Orkidea – Free Dreams.wav
Peak level 97.7 % Track quality 99.9 % Test CRC 9F118C28 Copy CRC 9F118C28 Accurately ripped (confidence 1) [3F1C2E60] Copy OK
Track 4
Filename F:\Music\DJ Orkidea - Metaverse (AVACD001)- 2008\2\04. David West & Orkidea – God's Garden.wav
Peak level 94.5 % Track quality 99.9 % Test CRC BE59BA8B Copy CRC BE59BA8B Accurately ripped (confidence 1) [A67AE521] Copy OK
Track 5
Filename F:\Music\DJ Orkidea - Metaverse (AVACD001)- 2008\2\05. Solarstone & Orkidea – Slowmotion.wav
Peak level 97.7 % Track quality 99.9 % Test CRC 5E92E133 Copy CRC 5E92E133 Accurately ripped (confidence 1) [F8D612CD] Copy OK
Track 6
Filename F:\Music\DJ Orkidea - Metaverse (AVACD001)- 2008\2\06. Orkidea – Stretching Time.wav
Peak level 97.7 % Track quality 99.9 % Test CRC 51F6E4ED Copy CRC 51F6E4ED Accurately ripped (confidence 1) [BEEBD710] Copy OK
Track 7
Filename F:\Music\DJ Orkidea - Metaverse (AVACD001)- 2008\2\07. Lowland & Orkidea – Masochrist.wav
Peak level 97.7 % Track quality 99.9 % Test CRC 89A12ACB Copy CRC 89A12ACB Accurately ripped (confidence 1) [2CC13833] Copy OK
Track 8
Filename F:\Music\DJ Orkidea - Metaverse (AVACD001)- 2008\2\08. Way Out West – Killa (Orkidea vs Dallas Superstars Remix).wav
Peak level 97.7 % Track quality 99.9 % Test CRC 979C097A Copy CRC 979C097A Accurately ripped (confidence 1) [8EAB83DF] Copy OK
Track 9
Filename F:\Music\DJ Orkidea - Metaverse (AVACD001)- 2008\2\09. Orkidea – Requiem.wav
Peak level 97.7 % Track quality 100.0 % Test CRC 788E9BE6 Copy CRC 788E9BE6 Cannot be verified as accurate (confidence 1) [A2305295], AccurateRip returned [4CF04FBE] Copy OK
Track 10
Filename F:\Music\DJ Orkidea - Metaverse (AVACD001)- 2008\2\10. Nightwish – Bye Bye Beautiful (Orkidea Remix).wav
Peak level 97.4 % Track quality 99.9 % Test CRC C9096411 Copy CRC C9096411 Accurately ripped (confidence 1) [C51FFF34] Copy OK
9 track(s) accurately ripped 1 track(s) could not be verified as accurate
Some tracks could not be verified as accurate
No errors occurred
End of status report

Содержание индексной карты (.CUE)

REM GENRE TranceREM DATE 2008REM DISCID 8F12230AREM COMMENT "ExactAudioCopy v0.99pb5"PERFORMER "Various"TITLE "Metaverse"FILE "01. Orkidea – Metaverse.wav" WAVE TRACK 01 AUDIO TITLE "Metaverse" PERFORMER "Orkidea" INDEX 01 00:00:00FILE "02. Andy Moor & Orkidea – Yearzero.wav" WAVE TRACK 02 AUDIO TITLE "Yearzero" PERFORMER "Andy Moor & Orkidea" INDEX 01 00:00:00FILE "03. Orkidea – Free Dreams.wav" WAVE TRACK 03 AUDIO TITLE "Free Dreams" PERFORMER "Orkidea" INDEX 01 00:00:00FILE "04. David West & Orkidea – God's Garden.wav" WAVE TRACK 04 AUDIO TITLE "God's Garden" PERFORMER "David West & Orkidea" INDEX 01 00:00:00FILE "05. Solarstone & Orkidea – Slowmotion.wav" WAVE TRACK 05 AUDIO TITLE "Slowmotion" PERFORMER "Solarstone & Orkidea" INDEX 01 00:00:00FILE "06. Orkidea – Stretching Time.wav" WAVE TRACK 06 AUDIO TITLE "Stretching Time" PERFORMER "Orkidea" INDEX 01 00:00:00FILE "07. Lowland & Orkidea – Masochrist.wav" WAVE TRACK 07 AUDIO TITLE "Masochrist" PERFORMER "Lowland & Orkidea" INDEX 01 00:00:00FILE "08. Way Out West – Killa (Orkidea vs Dallas Superstars Remix).wav" WAVE TRACK 08 AUDIO TITLE "Killa (Orkidea vs Dallas Superstars Remix)" PERFORMER "Way Out West" INDEX 01 00:00:00FILE "09. Orkidea – Requiem.wav" WAVE TRACK 09 AUDIO TITLE "Requiem" PERFORMER "Orkidea" INDEX 01 00:00:00FILE "10. Nightwish – Bye Bye Beautiful (Orkidea Remix).wav" WAVE TRACK 10 AUDIO TITLE "Bye Bye Beautiful (Orkidea Remix)" PERFORMER "Nightwish" INDEX 01 00:00:00

(2008) Orkidea - Metaverse Digital (Not On Label [None])

Источник (релизер): pijawka
Жанр: Trance
Носитель: WEB
Страна-производитель диска: (UK)
Год издания: 2008
Издатель (лейбл): Not On Label
Номер по каталогу: None
Аудиокодек: FLAC (*.flac)
Тип рипа: tracks
Битрейт аудио: lossless
Продолжительность: 01:11:18
Наличие сканов в содержимом раздачи: нет
Треклист:-01. Orkidea vs. Marc Mitchell - Eternal Love (11:24)
02. Orkidea - Beautiful (Alt+F4 Remix) (7:50)
03. Orkidea - Embrace (Orkidea vs. Super8 Mix) (10:14)
04. Dallas Superstars vs. Orkidea - Revolution (10:00)
05. Orkidea - Better Day (7:57)
06. Orkidea - Free Dreams (Extended Mix) (8:02)
07. Solarstone & Orkidea - Slowmotion (Extended Mix) (8:09)
08. Lowland vs. Orkidea - Masochrist (Extended Mix) (7:40)-

Лог проверки качества

-----------------------
DON'T MODIFY THIS FILE
-----------------------
PERFORMER: auCDtect Task Manager, ver. 1.6.0 RC1 build 1.6.0.1Copyright (c) 2008-2010 y-soft. All rights reservedhttp://y-soft.org
ANALYZER: auCDtect: CD records authenticity detector, version 0.8.2Copyright (c) 2004 Oleg Berngardt. All rights reserved.Copyright (c) 2004 Alexander Djourik. All rights reserved.
FILE: 03. Orkidea - Embrace (Orkidea vs. Super8 Mix).flac Size: 70375170 Hash: B8990DAB17518EEAA697D8EF9E096488 Accuracy: -m0 Conclusion: CDDA 100% Signature: 42E87B92128459818AD30B534C0F4E622618E491FILE: 02. Orkidea - Beautiful (Alt+F4 Remix).flac Size: 60655152 Hash: 9F1CFBF943849E9745027F0711DB5ED1 Accuracy: -m0 Conclusion: CDDA 100% Signature: 824E435F0381C1834520871EE452369C69C2762DFILE: 01. Orkidea vs. Marc Mitchell - Eternal Love.flac Size: 75218509 Hash: E51A4180F0DA8E21861D3A15426DC53C Accuracy: -m0 Conclusion: CDDA 76% Signature: 755D72028D0E5A4A062C7B9D2E1959CA0E8BCDADFILE: 08. Lowland vs. Orkidea - Masochrist (Extended Mix).flac Size: 54047040 Hash: EFFCB769604183F5656E62AC14DD3CE2 Accuracy: -m0 Conclusion: MPEG 95% Signature: 6ED0CE0A8ECC020936FF7989D7563ECAF92BCC09FILE: 07. Solarstone & Orkidea - Slowmotion (Extended Mix).flac Size: 46991897 Hash: E1A5C99C5E441277D271EF4E915AC3D7 Accuracy: -m0 Conclusion: CDDA 100% Signature: 4C935A1060F847576AE73A4586D4DE2A7B2F9332FILE: 06. Orkidea - Free Dreams (Extended Mix).flac Size: 60033451 Hash: 1CD7900D538FC8D684BC616BC07D1294 Accuracy: -m0 Conclusion: CDDA 99% Signature: 09B309C67A96976F2A554D78056268553878E286FILE: 05. Orkidea - Better Day.flac Size: 60413429 Hash: 28C1E7B2E35C329D216DFCF3ED81B52D Accuracy: -m0 Conclusion: CDDA 100% Signature: EACDB318CF7B637EAEAFEDB987DCCD60D9698AE8FILE: 04. Dallas Superstars vs. Orkidea - Revolution.flac Size: 69819992 Hash: F74646A6905BFDD70287013724FED425 Accuracy: -m0 Conclusion: CDDA 100% Signature: 32E84F34463C4E28F17D4E865DC6593BD4022DB9

(2011) Orkidea - 20 (Solaris [SLRSCD010])

Источник (релизер): fareng8 (Собственный диск.)
Жанр: Trance
Носитель: CD
Страна-производитель диска: (UK)
Год издания: 2011
Издатель (лейбл): Solaris
Номер по каталогу: SLRSCD010
Аудиокодек: FLAC (*.flac)
Тип рипа: track+.cue
Битрейт аудио: lossless
Продолжительность: 01:12:29
Наличие сканов в содержимом раздачи: Да, png, 600dpi
Треклист:-01. Orkidea - Beautiful (Orkidea Whiteout Remix) (8:37)
02. Orkidea & JS16 - Hale Bopp (6:41)
03. Orkidea & Solarstone - Slowmotion II (6:22)
04. Orkidea - Sun Down (6:14)
05. Orkidea - Pacifique (4:29)
06. Art Of Trance - Chung Kuo (Orkidea Remix) (6:52)
07. Lowland & Orkidea - Blackbird (7:30)
08. Orkidea - Tw3nty (6:35)
09. Way Out West - Killa (Orkidea 2011 Remix) (5:52)
10. Orkidea - Hot Trigger (5:48)
11. Orkidea - Unity (15th Anniversary Mix) (9:23)-

Лог создания рипа

Exact Audio Copy V1.0 beta 3 from 29. August 2011
EAC extraction logfile from 10. December 2011, 16:29
Orkidea / 20
Used drive : Optiarc DVD RW AD-7170A Adapter: 2 ID: 1
Read mode : SecureUtilize accurate stream : YesDefeat audio cache : YesMake use of C2 pointers : No
Read offset correction : 48Overread into Lead-In and Lead-Out : NoFill up missing offset samples with silence : YesDelete leading and trailing silent blocks : NoNull samples used in CRC calculations : YesUsed interface : Native Win32 interface for Win NT & 2000Gap handling : Appended to previous track
Used output format : User Defined EncoderSelected bitrate : 32 kBit/sQuality : HighAdd ID3 tag : YesCommand line compressor : C:\Programs\Exact Audio Copy\Flac\flac.exeAdditional command line options : -V -8 -T "Genre=%genre%" -T "Artist=%artist%" -T "Title=%title%" -T "Album=%albumtitle%" -T "Date=%year%" -T "Tracknumber=%tracknr%" -T "COMMENT=ripped by fareng8" %source%
TOC of the extracted CD
Track | Start | Length | Start sector | End sector --------------------------------------------------------- 1 | 0:00.00 | 8:37.37 | 0 | 38811 2 | 8:37.37 | 6:41.03 | 38812 | 68889 3 | 15:18.40 | 6:22.39 | 68890 | 97578 4 | 21:41.04 | 6:14.56 | 97579 | 125684 5 | 27:55.60 | 4:29.52 | 125685 | 145911 6 | 32:25.37 | 6:52.32 | 145912 | 176843 7 | 39:17.69 | 7:30.50 | 176844 | 210643 8 | 46:48.44 | 6:35.59 | 210644 | 240327 9 | 53:24.28 | 5:52.35 | 240328 | 266762 10 | 59:16.63 | 5:48.38 | 266763 | 292900 11 | 65:05.26 | 7:23.68 | 292901 | 326193
Track 1
Filename F:\Music\Orkidea – 20 (SLRSCD010) - 2011\01. Orkidea - Beautiful (Orkidea Whiteout Remix).wav
Pre-gap length 0:00:02.00
Peak level 99.9 % Extraction speed 4.1 X Track quality 100.0 % Test CRC 3D2FABD3 Copy CRC 3D2FABD3 Track not present in AccurateRip database Copy OK
Track 2
Filename F:\Music\Orkidea – 20 (SLRSCD010) - 2011\02. Orkidea & JS16 - Hale Bopp.wav
Peak level 99.9 % Extraction speed 4.8 X Track quality 99.9 % Test CRC 8D8B3C16 Copy CRC 8D8B3C16 Track not present in AccurateRip database Copy OK
Track 3
Filename F:\Music\Orkidea – 20 (SLRSCD010) - 2011\03. Orkidea & Solarstone - Slowmotion II.wav
Peak level 99.9 % Extraction speed 6.3 X Track quality 100.0 % Test CRC DAD75FB8 Copy CRC DAD75FB8 Track not present in AccurateRip database Copy OK
Track 4
Filename F:\Music\Orkidea – 20 (SLRSCD010) - 2011\04. Orkidea - Sun Down.wav
Peak level 99.9 % Extraction speed 1.8 X Track quality 100.0 % Test CRC 200F914D Copy CRC 200F914D Track not present in AccurateRip database Copy OK
Track 5
Filename F:\Music\Orkidea – 20 (SLRSCD010) - 2011\05. Orkidea - Pacifique.wav
Peak level 99.9 % Extraction speed 1.9 X Track quality 100.0 % Test CRC 96278255 Copy CRC 96278255 Track not present in AccurateRip database Copy OK
Track 6
Filename F:\Music\Orkidea – 20 (SLRSCD010) - 2011\06. Art Of Trance - Chung Kuo (Orkidea Remix).wav
Peak level 99.9 % Extraction speed 2.1 X Track quality 100.0 % Test CRC E3EE83B7 Copy CRC E3EE83B7 Track not present in AccurateRip database Copy OK
Track 7
Filename F:\Music\Orkidea – 20 (SLRSCD010) - 2011\07. Lowland & Orkidea - Blackbird.wav
Peak level 99.9 % Extraction speed 2.3 X Track quality 100.0 % Test CRC C3BEDEC7 Copy CRC C3BEDEC7 Track not present in AccurateRip database Copy OK
Track 8
Filename F:\Music\Orkidea – 20 (SLRSCD010) - 2011\08. Orkidea - Tw3nty.wav
Peak level 99.9 % Extraction speed 2.4 X Track quality 100.0 % Test CRC 9033B62F Copy CRC 9033B62F Track not present in AccurateRip database Copy OK
Track 9
Filename F:\Music\Orkidea – 20 (SLRSCD010) - 2011\09. Way Out West - Killa (Orkidea 2011 Remix).wav
Peak level 99.9 % Extraction speed 2.4 X Track quality 100.0 % Test CRC FFF4803D Copy CRC FFF4803D Track not present in AccurateRip database Copy OK
Track 10
Filename F:\Music\Orkidea – 20 (SLRSCD010) - 2011\10. Orkidea - Hot Trigger.wav
Peak level 99.9 % Extraction speed 2.5 X Track quality 100.0 % Test CRC 6FADB6A2 Copy CRC 6FADB6A2 Track not present in AccurateRip database Copy OK
Track 11
Filename F:\Music\Orkidea – 20 (SLRSCD010) - 2011\11. Orkidea - Unity (15th Anniversary Mix).wav
Peak level 99.9 % Extraction speed 1.0 X Track quality 99.7 % Test CRC E0AB81C8 Copy CRC E0AB81C8 Track not present in AccurateRip database Copy OK
None of the tracks are present in the AccurateRip database
No errors occurred
End of status report
==== Log checksum FAF2FEC1B5ED361D747E5DDB4E7CA9DA356827B9CD827FAF7D0BFA98F767121C ====

Содержание индексной карты (.CUE)

REM GENRE TranceREM DATE 2011REM DISCID 9E10FD0BREM COMMENT "ExactAudioCopy v1.0b3"PERFORMER "Orkidea"TITLE "20"FILE "01. Orkidea - Beautiful (Orkidea Whiteout Remix).wav" WAVE TRACK 01 AUDIO TITLE "Beautiful (Orkidea Whiteout Remix)" PERFORMER "Orkidea" ISRC 000000000000 INDEX 01 00:00:00FILE "02. Orkidea & JS16 - Hale Bopp.wav" WAVE TRACK 02 AUDIO TITLE "Hale Bopp" PERFORMER "Orkidea & JS16" ISRC 000000000000 INDEX 01 00:00:00FILE "03. Orkidea & Solarstone - Slowmotion II.wav" WAVE TRACK 03 AUDIO TITLE "Slowmotion II" PERFORMER "Orkidea & Solarstone" ISRC 000000000000 INDEX 01 00:00:00FILE "04. Orkidea - Sun Down.wav" WAVE TRACK 04 AUDIO TITLE "Sun Down" PERFORMER "Orkidea" ISRC 000000000000 INDEX 01 00:00:00FILE "05. Orkidea - Pacifique.wav" WAVE TRACK 05 AUDIO TITLE "Pacifique" PERFORMER "Orkidea" ISRC 000000000000 INDEX 01 00:00:00FILE "06. Art Of Trance - Chung Kuo (Orkidea Remix).wav" WAVE TRACK 06 AUDIO TITLE "Chung Kuo (Orkidea Remix)" PERFORMER "Art Of Trance" ISRC 000000000000 INDEX 01 00:00:00FILE "07. Lowland & Orkidea - Blackbird.wav" WAVE TRACK 07 AUDIO TITLE "Blackbird" PERFORMER "Lowland & Orkidea" ISRC 000000000000 INDEX 01 00:00:00FILE "08. Orkidea - Tw3nty.wav" WAVE TRACK 08 AUDIO TITLE "Tw3nty" PERFORMER "Orkidea" ISRC 000000000000 INDEX 01 00:00:00FILE "09. Way Out West - Killa (Orkidea 2011 Remix).wav" WAVE TRACK 09 AUDIO TITLE "Killa (Orkidea 2011 Remix)" PERFORMER "Way Out West" ISRC 000000000000 INDEX 01 00:00:00FILE "10. Orkidea - Hot Trigger.wav" WAVE TRACK 10 AUDIO TITLE "Hot Trigger" PERFORMER "Orkidea" ISRC 000000000000 INDEX 01 00:00:00FILE "11. Orkidea - Unity (15th Anniversary Mix).wav" WAVE TRACK 11 AUDIO TITLE "Unity (15th Anniversary Mix)" PERFORMER "Orkidea" ISRC 000000000000 INDEX 01 00:00:00

(2011) Orkidea - 20 (Solaris [SLRSCDLP010])

Источник (релизер): GG.Angel
Жанр: Trance
Носитель: WEB
Страна-производитель диска: (UK)
Год издания: 2011
Издатель (лейбл): Solaris
Номер по каталогу: SLRSCDLP010
Аудиокодек: FLAC (*.flac)
Тип рипа: tracks / image
Битрейт аудио: lossless
Продолжительность: 02:50:42
Наличие сканов в содержимом раздачи: нет
Треклист:-01. Orkidea - Beautiful (Orkidea Whiteout Remix) (9:25)
02. Orkidea & JS16 - Hale Bopp (8:10)
03. Orkidea & Solarstone - Slowmotion II (8:07)
04. Orkidea - Sun Down (7:34)
05. Orkidea - Pacifique (6:07)
06. Art Of Trance - Chung Kuo (Orkidea Remix) (8:39)
07. Lowland & Orkidea - Blackbird (8:58)
08. Orkidea - Tw3nty (7:23)
09. Way Out West - Killa (Orkidea 2011 Remix) (7:43)
10. Orkidea - Hot Trigger (7:06)
11. Orkidea - Unity (15th Anniversary Mix) (10:06)
12. Tilt & Pau van Dyk - Rendezvous (Orkidea Remix 1) (8:39)
13. Orkidea - 20 (Continuous DJ Mix) (1:12:28)- -

Лог проверки качества

-----------------------
DON'T MODIFY THIS FILE
-----------------------
PERFORMER: auCDtect Task Manager, ver. 1.6.0 RC1 build 1.6.0.1Copyright (c) 2008-2010 y-soft. All rights reservedhttp://y-soft.org
ANALYZER: auCDtect: CD records authenticity detector, version 0.8.2Copyright (c) 2004 Oleg Berngardt. All rights reserved.Copyright (c) 2004 Alexander Djourik. All rights reserved.
FILE: 04. Orkidea - Sun Down.flac Size: 54346599 Hash: E8571DA58A19B6256DDC57AD6BEA86D1 Accuracy: -m0 Conclusion: CDDA 100% Signature: 6DD3A6CCDAD7F6563AD3458997ED80DB07EB603DFILE: 03. Orkidea & Solarstone - Slowmotion II.flac Size: 61470048 Hash: 03DAA1E7F7AA18778255415E0EDD65D8 Accuracy: -m0 Conclusion: CDDA 100% Signature: 7DFBC13E1573F7B19D4704D3FFBFDC84A90F720CFILE: 02. Orkidea & JS16 - Hale Bopp.flac Size: 58181037 Hash: 79637EBCF94273879A295E2DFC0CCC5C Accuracy: -m0 Conclusion: CDDA 100% Signature: B5EF669D3DA4262CD38EDB8D4A7FA04FEE352368FILE: 01. Orkidea - Beautiful (Orkidea Whiteout Remix).flac Size: 71553619 Hash: B8CE75E96CBA3C1D52A4E7B8717D7815 Accuracy: -m0 Conclusion: CDDA 100% Signature: 5059315BDE747DC2DB1941A20F461FEA3BCF50E1FILE: 13. Orkidea - 20 (Continuous DJ Mix).flac Size: 540124175 Hash: 277EFA9B865F09252763FA8E9F046BD7 Accuracy: -m0 Conclusion: CDDA 100% Signature: EB074624F995692EEF5D7091A5C43FB31F06987BFILE: 12. Tilt& Pau _van Dyk - Rendezvous (Orkidea Remix 1).flac Size: 61182448 Hash: F800F1DA1CE0EF276F2BE2587077E2AB Accuracy: -m0 Conclusion: CDDA 100% Signature: BB72D975254EDD3222C4FE5E39878BBC6D2B759EFILE: 11. Orkidea - Unity (15th Anniversary Mix).flac Size: 71466414 Hash: F32F52E22D2DC43AC66DD05F1AC6B6AA Accuracy: -m0 Conclusion: CDDA 100% Signature: 091B8D6A765C4A0615B9948238F89C3C9EBF215BFILE: 10. Orkidea - Hot Trigger.flac Size: 55086128 Hash: 8113848DC2D04D39B2828611337E20BB Accuracy: -m0 Conclusion: CDDA 100% Signature: A21EF5A280FA7D00FC7847DA719F72894D3B7F01FILE: 09. Way Out West - Killa (Orkidea 2011 Remix).flac Size: 55194244 Hash: 7B1AE55D29983BD77257C6F7267C074F Accuracy: -m0 Conclusion: CDDA 99% Signature: 8C3A87B6293F948A6B7A9D58B9614667477EBE15FILE: 08. Orkidea -Tw3nty.flac Size: 56545765 Hash: 7ECBFBCEFA56CD016CD7A9FDC5C13902 Accuracy: -m0 Conclusion: CDDA 100% Signature: BEDF400198B72F34BBF83D38F0EC1BAD661DD417FILE: 07. Lowland & Orkidea - Blackbird.flac Size: 70870570 Hash: 1331709985C6F4DDD961EF0DC8922523 Accuracy: -m0 Conclusion: CDDA 100% Signature: C85B8A622B74C80E6543B60FDF76E7FD48E34E89FILE: 06. Art Of Trance - Chung Kuo (Orkidea Remix).flac Size: 66182938 Hash: AA841DF999DA9EACCE6168616F7DDD7D Accuracy: -m0 Conclusion: CDDA 100% Signature: 1DE47782E19B715E44BF0D13087F09B50F1FA13DFILE: 05. Orkidea - Pacifique.flac Size: 43261349 Hash: 83398121939E63F083ACDC0CAF99046E Accuracy: -m0 Conclusion: MPEG 95% Signature: 35E0BAF6EAA1143EC21BF173EE687F1D521185E6

(2013) Orkidea - 20Ximer (Solaris [SLRSCDLP012])

Источник (релизер): What
Жанр: Trance
Носитель: WEB
Страна-производитель диска: (UK)
Год издания: 2013
Издатель (лейбл): Solaris
Номер по каталогу: SLRSCDLP012
Аудиокодек: FLAC (*.flac)
Тип рипа: track
Битрейт аудио: lossless
Продолжительность: 02:41:59
Наличие сканов в содержимом раздачи: нет
Треклист:-01. Orkidea - Unity (Pure Intro Mix) (3:12)
02. Orkidea - Tw3nty (Lovetone vs. JS16 Remix) (4:46)
03. Lowland & Orkidea - Blackbird (Orkidea's Nu Rave Mix) (5:39)
04. Orkidea - Unity (Solarstone Pure Mix) (9:24)
05. Orkidea - Sundown (Michael Cassette Remix) (8:12)
06. Orkidea - Liberation (Something Good Vocal Remix) (7:31)
07. Orkidea & Solarstone - Slowmotion II (Winkee Remix) (11:33)
08. Orkidea - Tw3nty (Beach X Remix) (7:51)
09. Orkidea - Lifetime Warranty (Original Mix) (5:48)
10. Orkidea & JS16 - Hale Bopp (Orkidea Remix) (8:43)
11. Lowland & Orkidea - Blackbird (Darude Remix) (6:46)
12. Orkidea & Solarstone - Slowmotion II (Tempo Giusto Remix) (6:48)
13. Orkidea - Pacifique (Chantola Remix) (6:20)
14. Orkidea & JS16 - Hale Bopp (Timewave Remix) (10:17)
15. Orkidea - Liberation (Mystery Islands Remix) (6:45)
16. Orkidea - Sphere (Original Mix) (9:02)
17. Orkidea - Unity (Allende Remix) (8:31)
18. Orkidea - Pacifique (Antti Rasi Remix) (8:54)
19. Orkidea - Unity (Mindwave Remix) (8:18)
20. Orkidea - Pacifique (Beetseekers Remix) (9:23)
21. Orkidea - Unity (Orion & JShore Remix) (8:07)- -

Лог проверки качества

-----------------------
DON'T MODIFY THIS FILE
-----------------------
PERFORMER: auCDtect Task Manager, ver. 1.6.0 RC1 build 1.6.0.1Copyright (c) 2008-2010 y-soft. All rights reservedhttp://y-soft.org
ANALYZER: auCDtect: CD records authenticity detector, version 0.8.2Copyright (c) 2004 Oleg Berngardt. All rights reserved.Copyright (c) 2004 Alexander Djourik. All rights reserved.
FILE: 11. Lowland & Orkidea - Blackbird (Darude Remix).flac Size: 52167500 Hash: EA8E4CCC5224D3F1C179773D7947FE77 Accuracy: -m0 Conclusion: CDDA 100% Signature: A035A87ECCF24D983CE52B7D9AAC6E87EC77251DFILE: 10. Orkidea & JS16 - Hale Bopp (Orkidea Remix).flac Size: 63508595 Hash: F9D1E41D31981A17BA116E699389C114 Accuracy: -m0 Conclusion: CDDA 99% Signature: F06791F8E7690D82E80070D19E4DBCD96A522370FILE: 09. Orkidea - Lifetime Warranty (Original Mix).flac Size: 42763376 Hash: C69B236AE283E8B60D94EFA5700D6003 Accuracy: -m0 Conclusion: CDDA 100% Signature: E039747962BDFC197AEBB3FC4B8A7067E696EF59FILE: 08. Orkidea - Tw3nty (Beach X Remix).flac Size: 60483290 Hash: 0E9EF643CDFC186959065FA5C381D383 Accuracy: -m0 Conclusion: CDDA 100% Signature: DA97F46CF5BA66111BC731C119AB753CE32E9A69FILE: 07. Orkidea & Solarstone - Slowmotion II (Winkee Remix).flac Size: 91274845 Hash: AC59788453F45ED006CF6A68862D40F7 Accuracy: -m0 Conclusion: CDDA 100% Signature: 8F31ABD2C29FBFFAFAE0A772B35E378DB1DDC786FILE: 06. Orkidea - Liberation (Something Good Vocal Remix).flac Size: 55586439 Hash: CAED77595B3EB901E83074F83B45CE73 Accuracy: -m0 Conclusion: CDDA 99% Signature: 1364C72A82732096EC4DF4AF15EC031C6676DBFCFILE: 05. Orkidea - Sundown (Michael Cassette Remix).flac Size: 58041275 Hash: BC28A8484DFCAB9ABC500303BD86BA74 Accuracy: -m0 Conclusion: CDDA 100% Signature: CFE7C6C2D5F2840EC867CB297BDFDD1EB8767BB8FILE: 04. Orkidea - Unity (Solarstone Pure Mix).flac Size: 69060998 Hash: E0D313ACFC8BE0F0EA816773772999B7 Accuracy: -m0 Conclusion: CDDA 100% Signature: 7369DC0C0FE9A7F42FFD006116F990F170965064FILE: 03. Lowland & Orkidea - Blackbird (Orkidea's Nu Rave Mix).flac Size: 44375719 Hash: DDAA30CB791CC123A1BE27397EBB99C5 Accuracy: -m0 Conclusion: CDDA 100% Signature: EE81F7BCD8BB12CCAAB1ED44AB2310A1310B469AFILE: 02. Orkidea - Tw3nty (Lovetone vs JS16 Remix).flac Size: 37263934 Hash: 302EB60340A43270B78368E0D882418E Accuracy: -m0 Conclusion: MPEG 95% Signature: 872E1DA42801A382977B3F72C1CBF59BF15D5530FILE: 01. Orkidea - Unity (Pure Intro Mix).flac Size: 19367540 Hash: 3BE4DF52D8B8BA1639DA7865BEFF7B1D Accuracy: -m0 Conclusion: MPEG 95% Signature: 3A6DC48C0EE0E5904DD9920F58507FF544C5B176FILE: 21. Orkidea - Unity (Orion & JShore Remix).flac Size: 42672143 Hash: 65B91D422FA5723F5E6BF5C009FCC3C7 Accuracy: -m0 Conclusion: CDDA 99% Signature: C637B142C2458FC29B5C14B22A998CED9EC9E4B4FILE: 20. Orkidea - Pacifique (Beetseekers Remix).flac Size: 71908543 Hash: 7BD85583462166E6FE436ED57588A51F Accuracy: -m0 Conclusion: CDDA 100% Signature: EBAC87DDEC5B546D5462AC4DCF5958C670035DE3FILE: 19. Orkidea - Unity (Mindwave Remix).flac Size: 56845361 Hash: 284C91EBC80D75795A66423BAB759595 Accuracy: -m0 Conclusion: CDDA 100% Signature: A9C93F0F333CF3E7EFF22FC488BA8835D2B7E9C1FILE: 18. Orkidea - Pacifique (Antti Rasi Remix).flac Size: 52870263 Hash: 5BB9D78689D0B393116009FC5A9855DD Accuracy: -m0 Conclusion: CDDA 100% Signature: 6A44785D84564C7A30FDB3B89701C6A4DDB28288FILE: 17. Orkidea - Unity (Allende Remix).flac Size: 62611271 Hash: 3F8D0994B58EFE861734E25940EF77E3 Accuracy: -m0 Conclusion: CDDA 100% Signature: 517C5EBA2BF602DB40989C5EEEFFB438FE4961C1FILE: 16. Orkidea - Sphere (Original Mix).flac Size: 61821151 Hash: EB4EF62CAEA30A90B277B5506CF9B53D Accuracy: -m0 Conclusion: CDDA 100% Signature: F9A5A7AD25F55F430986534DC7557A1FF9157649FILE: 15. Orkidea - Liberation (Mystery Islands Remix).flac Size: 50094273 Hash: CF1E254F95EA07AB790B384151E0B654 Accuracy: -m0 Conclusion: CDDA 100% Signature: A3B448414E379B19907E9E5447A1AFB890D81319FILE: 14. Orkidea & JS16 - Hale Bopp (Timewave Remix).flac Size: 69880584 Hash: 60AED25C07356A124E6ACBEA4DAF4C23 Accuracy: -m0 Conclusion: CDDA 100% Signature: 46E97F70845CEED86CF8F3CF19107D36AD1F4D65FILE: 13. Orkidea - Pacifique (Chantola Remix).flac Size: 40348833 Hash: E906E5CE163CFD145B201BD1B3BE2EA7 Accuracy: -m0 Conclusion: CDDA 100% Signature: 6039722A97FAF75848BB3AA86A71FCDEE903D433FILE: 12. Orkidea & Solarstone - Slowmotion II (Tempo Giusto Remix).flac Size: 57407423 Hash: 3D4EAD256161DAC7350D8A310CF3126A Accuracy: -m0 Conclusion: CDDA 100% Signature: 16B98705E58AD44C00CCE0D564A89B73D01DDD38

(2015) Orkidea - Harmonia (Black Hole Recordings [Black Hole CD 133])

Источник (релизер): serginho199 (Собственный диск.)
Жанр: Trance
Носитель: CD
Страна-производитель диска: (Netherlands)
Год издания: 2015
Издатель (лейбл): Black Hole Recordings
Номер по каталогу: Black Hole CD 133
Аудиокодек: FLAC (*.flac)
Тип рипа: track+.cue
Битрейт аудио: lossless
Продолжительность: 01:14:51
Наличие сканов в содержимом раздачи: Да. (600dpi)
Треклист:-01. Orkidea - My Sunset (5:19)
02. Orkidea - Dreamers Of Dreams (6:03)
03. Orkidea feat. Ben Lord - Neo Romance (4:10)
04. Orkidea - P:Machinery (5:26)
05. Orkidea - Revolution Industrielle (5:23)
06. Orkidea & Solarstone - Slowmotion III (5:53)
07. Orkidea feat. Sami Uotila - Strange World (5:30)
08. Orkidea & Lowland - Glowing Skies (5:42)
09. Orkidea - Nana (4:54)
10. Orkidea - Valhalla (4:49)
11. Orkidea - Purity (5:34)
12. Orkidea & Activa - The Awakening (5:13)
13. Orkidea & Giuseppe Ottaviani - North Star (4:39)
14. Orkidea - Harmonia (6:15)-

Лог создания рипа

Exact Audio Copy V1.1 from 23. June 2015
EAC extraction logfile from 3. August 2015, 10:13
Orkidea / Harmonia
Used drive : TSSTcorpCDDVDW SH-224DB Adapter: 1 ID: 0
Read mode : SecureUtilize accurate stream : YesDefeat audio cache : YesMake use of C2 pointers : No
Read offset correction : 6Overread into Lead-In and Lead-Out : NoFill up missing offset samples with silence : YesDelete leading and trailing silent blocks : NoNull samples used in CRC calculations : YesUsed interface : Native Win32 interface for Win NT & 2000Gap handling : Appended to previous track
Used output format : User Defined EncoderSelected bitrate : 128 kBit/sQuality : HighAdd ID3 tag : NoCommand line compressor : C:\Program Files (x86)\Exact Audio Copy\Flac\flac.exeAdditional command line options : -8 -V -T "ARTIST=%artist%" -T "TITLE=%title%" -T "ALBUM=%albumtitle%" -T "DATE=%year%" -T "TRACKNUMBER=%tracknr%" -T "GENRE=%genre%" -T "COMPOSER=%composer%" -T "COMMENT=ripped by serginho199®" %source%
TOC of the extracted CD
Track | Start | Length | Start sector | End sector --------------------------------------------------------- 1 | 0:00.00 | 5:18.68 | 0 | 23917 2 | 5:18.68 | 6:02.73 | 23918 | 51140 3 | 11:21.66 | 4:10.03 | 51141 | 69893 4 | 15:31.69 | 5:26.20 | 69894 | 94363 5 | 20:58.14 | 5:22.56 | 94364 | 118569 6 | 26:20.70 | 5:53.33 | 118570 | 145077 7 | 32:14.28 | 5:29.71 | 145078 | 169823 8 | 37:44.24 | 5:42.33 | 169824 | 195506 9 | 43:26.57 | 4:53.45 | 195507 | 217526 10 | 48:20.27 | 4:49.36 | 217527 | 239237 11 | 53:09.63 | 5:33.60 | 239238 | 264272 12 | 58:43.48 | 5:13.27 | 264273 | 287774 13 | 63:57.00 | 4:39.04 | 287775 | 308703 14 | 68:36.04 | 6:15.12 | 308704 | 336840
Track 1
Filename C:\EACrips\Orkidea - Harmonia (2015) {Black Hole CD 133}\01. Orkidea - My Sunset.wav
Pre-gap length 0:00:02.00
Peak level 98.9 % Extraction speed 2.0 X Track quality 100.0 % Test CRC 68E90E55 Copy CRC 68E90E55 Track not present in AccurateRip database Copy OK
Track 2
Filename C:\EACrips\Orkidea - Harmonia (2015) {Black Hole CD 133}\02. Orkidea - Dreamers Of Dreams.wav
Peak level 99.5 % Extraction speed 2.2 X Track quality 100.0 % Test CRC 90AE1F23 Copy CRC 90AE1F23 Track not present in AccurateRip database Copy OK
Track 3
Filename C:\EACrips\Orkidea - Harmonia (2015) {Black Hole CD 133}\03. Orkidea feat. Ben Lord - Neo Romance.wav
Peak level 99.0 % Extraction speed 2.4 X Track quality 100.0 % Test CRC DBC99A1A Copy CRC DBC99A1A Track not present in AccurateRip database Copy OK
Track 4
Filename C:\EACrips\Orkidea - Harmonia (2015) {Black Hole CD 133}\04. Orkidea - P-Machinery.wav
Peak level 99.1 % Extraction speed 2.6 X Track quality 100.0 % Test CRC 5ACE622C Copy CRC 5ACE622C Track not present in AccurateRip database Copy OK
Track 5
Filename C:\EACrips\Orkidea - Harmonia (2015) {Black Hole CD 133}\05. Orkidea - Revolution Industrielle.wav
Peak level 99.3 % Extraction speed 2.8 X Track quality 100.0 % Test CRC A133B8D5 Copy CRC A133B8D5 Track not present in AccurateRip database Copy OK
Track 6
Filename C:\EACrips\Orkidea - Harmonia (2015) {Black Hole CD 133}\06. Solarstone & Orkidea - Slowmotion III.wav
Peak level 99.6 % Extraction speed 3.0 X Track quality 100.0 % Test CRC 90FE6D94 Copy CRC 90FE6D94 Track not present in AccurateRip database Copy OK
Track 7
Filename C:\EACrips\Orkidea - Harmonia (2015) {Black Hole CD 133}\07. Orkidea feat. Sami Uotila - Strange World.wav
Peak level 99.6 % Extraction speed 3.1 X Track quality 100.0 % Test CRC 59BEF35E Copy CRC 59BEF35E Track not present in AccurateRip database Copy OK
Track 8
Filename C:\EACrips\Orkidea - Harmonia (2015) {Black Hole CD 133}\08. Orkidea & Lowland - Glowing Skies.wav
Peak level 99.3 % Extraction speed 3.3 X Track quality 100.0 % Test CRC 793BB8E6 Copy CRC 793BB8E6 Track not present in AccurateRip database Copy OK
Track 9
Filename C:\EACrips\Orkidea - Harmonia (2015) {Black Hole CD 133}\09. Orkidea - Nana.wav
Peak level 99.6 % Extraction speed 3.3 X Track quality 100.0 % Test CRC 8D82E449 Copy CRC 8D82E449 Track not present in AccurateRip database Copy OK
Track 10
Filename C:\EACrips\Orkidea - Harmonia (2015) {Black Hole CD 133}\10. Orkidea - Redemption.wav
Peak level 99.0 % Extraction speed 2.9 X Track quality 99.9 % Test CRC D206B380 Copy CRC D206B380 Track not present in AccurateRip database Copy OK
Track 11
Filename C:\EACrips\Orkidea - Harmonia (2015) {Black Hole CD 133}\11. Orkidea - Purity.wav
Peak level 99.1 % Extraction speed 3.7 X Track quality 100.0 % Test CRC E1FE8ECE Copy CRC E1FE8ECE Track not present in AccurateRip database Copy OK
Track 12
Filename C:\EACrips\Orkidea - Harmonia (2015) {Black Hole CD 133}\12. Orkidea & Activa - Z21.wav
Peak level 99.2 % Extraction speed 3.1 X Track quality 99.9 % Test CRC B82FBED3 Copy CRC B82FBED3 Track not present in AccurateRip database Copy OK
Track 13
Filename C:\EACrips\Orkidea - Harmonia (2015) {Black Hole CD 133}\13. Giuseppe Ottaviani & Orkidea - North Star.wav
Peak level 99.7 % Extraction speed 3.8 X Track quality 100.0 % Test CRC 3B64EFF1 Copy CRC 3B64EFF1 Track not present in AccurateRip database Copy OK
Track 14
Filename C:\EACrips\Orkidea - Harmonia (2015) {Black Hole CD 133}\14. Orkidea - Harmonia.wav
Peak level 99.7 % Extraction speed 3.3 X Track quality 99.9 % Test CRC 4C476A0C Copy CRC 4C476A0C Track not present in AccurateRip database Copy OK
None of the tracks are present in the AccurateRip database
No errors occurred
End of status report
---- CUETools DB Plugin V2.1.6
[CTDB TOCID: Tn_IoFcV3Xihl.qXiK9TloApopc-] foundSubmit result: Tn_IoFcV3Xihl.qXiK9TloApopc- has been confirmedTrack | CTDB Status 1 | (7/7) Accurately ripped 2 | (7/7) Accurately ripped 3 | (7/7) Accurately ripped 4 | (7/7) Accurately ripped 5 | (7/7) Accurately ripped 6 | (7/7) Accurately ripped 7 | (7/7) Accurately ripped 8 | (7/7) Accurately ripped 9 | (7/7) Accurately ripped 10 | (7/7) Accurately ripped 11 | (7/7) Accurately ripped 12 | (7/7) Accurately ripped 13 | (7/7) Accurately ripped 14 | (7/7) Accurately ripped
==== Log checksum 5209556603216BFAF84FBDB15EBF001D4FEE59E744F87DBFA0E1E9869F444758 ====

Содержание индексной карты (.CUE)

REM GENRE "Trance, Progressive Trance, Psy-Trance"REM DATE 2015REM DISCID C2118B0EREM COMMENT "ExactAudioCopy v1.1"PERFORMER "Orkidea"TITLE "Harmonia"FILE "01. Orkidea - My Sunset.wav" WAVE TRACK 01 AUDIO TITLE "My Sunset" PERFORMER "Orkidea" ISRC NLE711500318 INDEX 01 00:00:00FILE "02. Orkidea - Dreamers Of Dreams.wav" WAVE TRACK 02 AUDIO TITLE "Dreamers Of Dreams" PERFORMER "Orkidea" ISRC NLE711500319 INDEX 01 00:00:00FILE "03. Orkidea feat. Ben Lord - Neo Romance.wav" WAVE TRACK 03 AUDIO TITLE "Neo Romance" PERFORMER "Orkidea feat. Ben Lord" ISRC NLE711500320 INDEX 01 00:00:00FILE "04. Orkidea - P-Machinery.wav" WAVE TRACK 04 AUDIO TITLE "P:Machinery" PERFORMER "Orkidea" ISRC NLE711500321 INDEX 01 00:00:00FILE "05. Orkidea - Revolution Industrielle.wav" WAVE TRACK 05 AUDIO TITLE "Revolution Industrielle" PERFORMER "Orkidea" ISRC NLE711500322 INDEX 01 00:00:00FILE "06. Solarstone & Orkidea - Slowmotion III.wav" WAVE TRACK 06 AUDIO TITLE "Slowmotion III" PERFORMER "Solarstone & Orkidea" ISRC NLE711500323 INDEX 01 00:00:00FILE "07. Orkidea feat. Sami Uotila - Strange World.wav" WAVE TRACK 07 AUDIO TITLE "Strange World" PERFORMER "Orkidea feat. Sami Uotila" ISRC NLE711500324 INDEX 01 00:00:00FILE "08. Orkidea & Lowland - Glowing Skies.wav" WAVE TRACK 08 AUDIO TITLE "Glowing Skies" PERFORMER "Orkidea & Lowland" ISRC NLE711500325 INDEX 01 00:00:00FILE "09. Orkidea - Nana.wav" WAVE TRACK 09 AUDIO TITLE "Nana" PERFORMER "Orkidea" ISRC NLE711500326 INDEX 01 00:00:00FILE "10. Orkidea - Redemption.wav" WAVE TRACK 10 AUDIO TITLE "Redemption" PERFORMER "Orkidea" ISRC NLE711500327 INDEX 01 00:00:00FILE "11. Orkidea - Purity.wav" WAVE TRACK 11 AUDIO TITLE "Purity" PERFORMER "Orkidea" ISRC NLE711500327 INDEX 01 00:00:00FILE "12. Orkidea & Activa - Z21.wav" WAVE TRACK 12 AUDIO TITLE "Z21" PERFORMER "Orkidea & Activa" ISRC NLE711500329 INDEX 01 00:00:00FILE "13. Giuseppe Ottaviani & Orkidea - North Star.wav" WAVE TRACK 13 AUDIO TITLE "North Star" PERFORMER "Giuseppe Ottaviani & Orkidea" ISRC NLE711500330 INDEX 01 00:00:00FILE "14. Orkidea - Harmonia.wav" WAVE TRACK 14 AUDIO TITLE "Harmonia" PERFORMER "Orkidea" ISRC NLE711500331 INDEX 01 00:00:00

(2015) Orkidea - Harmonia (Black Hole Recordings [BHCD133])

Источник (релизер): krivenchenko
Жанр: Trance
Носитель: WEB
Страна-производитель диска: (Netherlands)
Год издания: 2015
Издатель (лейбл): Black Hole Recordings
Номер по каталогу: BHCD133
Аудиокодек: FLAC (*.flac)
Тип рипа: track
Битрейт аудио: lossless
Продолжительность: 01:15:47
Наличие сканов в содержимом раздачи: нет
Треклист:-01. Orkidea - My Sunset (5:22)
02. Orkidea - Dreamers Of Dreams (6:17)
03. Orkidea feat. Ben Lord - Neo Romance (4:13)
04. Orkidea - P:Machinery (5:31)
05. Orkidea - Revolution Industrielle (5:25)
06. Orkidea & Solarstone - Slowmotion III (5:55)
07. Orkidea feat. Sami Uotila - Strange World (5:35)
08. Orkidea & Lowland - Glowing Skies (5:44)
09. Orkidea - Nana (4:59)
10. Orkidea - Valhalla (4:54)
11. Orkidea - Purity (5:37)
12. Orkidea & Activa - The Awakening (5:14)
13. Orkidea & Giuseppe Ottaviani - North Star (4:42)
14. Orkidea - Harmonia (6:15)- -

Лог проверки качества

-----------------------
DON'T MODIFY THIS FILE
-----------------------
PERFORMER: auCDtect Task Manager, ver. 1.6.0 RC1 build 1.6.0.1Copyright (c) 2008-2010 y-soft. All rights reservedhttp://y-soft.org
ANALYZER: auCDtect: CD records authenticity detector, version 0.8.2Copyright (c) 2004 Oleg Berngardt. All rights reserved.Copyright (c) 2004 Alexander Djourik. All rights reserved.
FILE: 04. Orkidea - P-Machinery.flac Size: 40886886 Hash: 1AC2EE93EB64044D436DED2798AD7E27 Accuracy: -m0 Conclusion: CDDA 100% Signature: F1F2201913EBA421820F294008093A5731FC98BFFILE: 03. Orkidea feat. Ben Lord - Neo Romance.flac Size: 30641292 Hash: B7AFCAE371D84FD672A6418A2FCD0042 Accuracy: -m0 Conclusion: CDDA 100% Signature: C9C295369278C9D0C73E18DF55335B773663B0B9FILE: 02. Orkidea - Dreamers of Dreams.flac Size: 47102220 Hash: 752837EADBE36504708EE8FE9C47E789 Accuracy: -m0 Conclusion: CDDA 100% Signature: 3F67704DF0274814F2E4EA7BB1F38EB63A8FD915FILE: 01. Orkidea - My Sunset.flac Size: 33985636 Hash: B40489FF63A6EE140C5AEB1AD902D4D6 Accuracy: -m0 Conclusion: CDDA 100% Signature: 4990FB543391F915E26C575FED4B1AA6E8994624FILE: 14. Orkidea - Harmonia.flac Size: 49257908 Hash: 33855B30D9834B42C340CA6D51F7D56A Accuracy: -m0 Conclusion: CDDA 100% Signature: 21F66AED48092254741F189935A9410B0354417AFILE: 13. Orkidea & Giuseppe Ottaviani - North Star.flac Size: 38906205 Hash: 9A7B965259213B86A6F838DD40295C59 Accuracy: -m0 Conclusion: CDDA 100% Signature: 151BCD1C78EC7A4368FCF8D1889B0B31A9DDE225FILE: 12. Orkidea & Activa - Z21.flac Size: 36790895 Hash: D9E7123173E1998339FCF54FC149D356 Accuracy: -m0 Conclusion: CDDA 100% Signature: FD31C619E9CC998B2DDE14F864018A359D93AF0EFILE: 11. Orkidea - Purity.flac Size: 42050654 Hash: C8FC45037BD1174791BBE6AB3C5BBEC9 Accuracy: -m0 Conclusion: MPEG 95% Signature: 05EFE5778FD4CDB0441267DC0E33138B068EA95EFILE: 10. Orkidea - Redemption.flac Size: 33964465 Hash: CD437EFC9324E7A07B40CF53A2493B99 Accuracy: -m0 Conclusion: MPEG 95% Signature: 7967D7CA286AEAD4FF7C18F4FCA3835403315F6FFILE: 09. Orkidea - Nana.flac Size: 37826012 Hash: C0E9ED11F92B251BF6AA16F10D44BAA2 Accuracy: -m0 Conclusion: CDDA 99% Signature: B632A99BF31B1CD1A0F0C5550E80DDE100469F6EFILE: 08. Orkidea & Lowland - Glowing Skies.flac Size: 42614899 Hash: 7A4C9F0F2793661E6323718D99C1A6B7 Accuracy: -m0 Conclusion: CDDA 100% Signature: 888482BE2FB3973928B22DA367FE4327F78B7528FILE: 07. Orkidea feat. Sami Uotila - Strange World.flac Size: 44639118 Hash: B2F27F3FAC461AA7310C0075D07C1F3B Accuracy: -m0 Conclusion: CDDA 99% Signature: A96FABBEF497E77AA9B27E8E9FBF955707FAF57CFILE: 06. Orkidea & Solarstone - Slowmotion III.flac Size: 43260724 Hash: EE0877C63F25B3E39494A069FA8C0BD2 Accuracy: -m0 Conclusion: MPEG 95% Signature: C05B6D1B3D0C65EE2DD2F09E64F61F91ACA2546CFILE: 05. Orkidea - Revolution Industrielle.flac Size: 42733469 Hash: 1C5A38517045887560F09EB19CECF651 Accuracy: -m0 Conclusion: MPEG 95% Signature: 730A1720AA8645492DC9C15728ABE0692607F909

(2017) Orkidea - Harmonia (Deluxe Edition) (Black Hole Recordings [BHCD133DELUXE])

Источник (релизер): Demonic16
Жанр: Trance
Носитель: WEB
Страна-производитель диска: (Netherlands)
Год издания: 2017
Издатель (лейбл): Black Hole Recordings
Номер по каталогу: BHCD133DELUXE
Аудиокодек: FLAC (*.flac)
Тип рипа: track
Битрейт аудио: lossless
Продолжительность: 03:09:08
Наличие сканов в содержимом раздачи: нет
Треклист:-01. Orkidea - My Sunset (Extended Mix) (6:36)
02. Orkidea - Dreamers of Dreams (Extended Mix) (7:31)
03. Orkidea feat. Ben Lord - Neo Romance (Extended Mix) (5:43)
04. Orkidea - p-Machinery (Extended Mix) (7:23)
05. Orkidea - Revolution Industrielle (Extended Mix) (9:07)
06. Orkidea & Solarstone - Slowmotion III (Extended Mix) (7:53)
07. Orkidea feat. Sami Uotila - Strange World (Extended Mix) (6:02)
08. Orkidea & Lowland - Glowing Skies (Extended Mix) (7:01)
09. Orkidea - Nana (Extended Mix) (6:45)
10. Orkidea - Redemption (Extended Mix) (6:46)
11. Orkidea - Purity (Extended Mix) (8:44)
12. Activa & Orkidea - Z21 (Extended Mix) (7:26)
13. Giuseppe Ottaviani & Orkidea - North Star (Extended Mix) (6:43)
14. Orkidea - Harmonia (Extended Mix) (9:01)
15. Orkidea & Solarstone - Slowmotion III (Solarstone Remix) (8:56)
16. Orkidea & Solarstone - Slowmotion III (Orkidea Remix) (13:22)
17. Orkidea feat. Sami Uotila - Strange World (Tom & Hills Remix) (5:50)
18. Orkidea & Lowland - Glowing Skies (Solarstone Pure Mix) (7:27)
19. Orkidea - Nana (Jerome Isma-Ae Remix) (6:51)
20. Orkidea - Nana (Gai Barone Remix) (8:28)
21. Orkidea - Redemption (Tempo Giusto Remix) (7:05)
22. Orkidea - Purity (Sneijder Remix) (6:48)
23. Orkidea - Purity (Nicholas Bennison Remix) (7:48)
24. Orkidea - Purity (Peetu S. Remix) (6:27)
25. Giuseppe Ottaviani & Orkidea - North Star (Factor B Southern Star Remix) (7:25)- -

Лог проверки качества

-----------------------
DON'T MODIFY THIS FILE
-----------------------
PERFORMER: auCDtect Task Manager, ver. 1.6.0 RC1 build 1.6.0.1Copyright (c) 2008-2010 y-soft. All rights reservedhttp://y-soft.org
ANALYZER: auCDtect: CD records authenticity detector, version 0.8.2Copyright (c) 2004 Oleg Berngardt. All rights reserved.Copyright (c) 2004 Alexander Djourik. All rights reserved.
FILE: 16. Orkidea & Solarstone - Slowmotion III (Orkidea Remix).flac Size: 98532541 Hash: A5D6C5AC7CC8F4C53CA3476677708A1E Accuracy: -m0 Conclusion: CDDA 100% Signature: D9B98D557FF3DD6B73D0A31C7102DB18AEECB03BFILE: 15. Orkidea & Solarstone - Slowmotion III (Solarstone Remix).flac Size: 69107377 Hash: 0E563B50110A769137318F44A391F3AA Accuracy: -m0 Conclusion: CDDA 100% Signature: 91CD2B2A133B0E6448D363D0EDE80603A5989EA9FILE: 14. Orkidea - Harmonia (Extended Mix).flac Size: 69454870 Hash: 336029F05867F34BD4ECA5BE3613C62E Accuracy: -m0 Conclusion: CDDA 100% Signature: AA79560CE237F42D692658921F8555861BED9097FILE: 13. Giuseppe Ottaviani & Orkidea - North Star (Extended Mix).flac Size: 56593204 Hash: C6A9D33325B6043B9F7DC4C57CEFBC82 Accuracy: -m0 Conclusion: CDDA 100% Signature: 59D7938149037A65983AE86D2C2788962245016EFILE: 12. Activa & Orkidea - Z21 (Extended Mix).flac Size: 53412039 Hash: B2593427D96BBCF7E450F3B0C616DB07 Accuracy: -m0 Conclusion: CDDA 100% Signature: 08C1EE479E09E79ADE090244C572B96B525F3AD8FILE: 11. Orkidea - Purity (Extended Mix).flac Size: 63916432 Hash: C564BEFD26F6485B2C1EA32700FA8596 Accuracy: -m0 Conclusion: CDDA 100% Signature: 16C1D413DCCC00151C788E8349402F34596C9BE2FILE: 10. Orkidea - Redemption (Extended Mix).flac Size: 47711544 Hash: 8920918EEAF66EFB616173161E79279F Accuracy: -m0 Conclusion: CDDA 100% Signature: 70D96CF514E3DD430E06B4F81305638EAA6F8605FILE: 09. Orkidea - Nana (Extended Mix).flac Size: 51174166 Hash: D4FBB75F9B1660A2FA1F695DC4427D9A Accuracy: -m0 Conclusion: CDDA 100% Signature: 958E00A5D0BB7309D2FDD8C762A4E97583625F59FILE: 08. Orkidea & Lowland - Glowing Skies (Extended Mix).flac Size: 52078024 Hash: C30C061F121672C03E011E347E8438D4 Accuracy: -m0 Conclusion: CDDA 100% Signature: 9783310E009749871AB8942E37E35E210C896478FILE: 07. Orkidea feat. Sami Uotila - Strange World (Extended Mix).flac Size: 48480052 Hash: 88ACC92E1FF035559DF5B319CB2E50E4 Accuracy: -m0 Conclusion: CDDA 100% Signature: 903A2346E07C16DF5995E4432FB9591A08FBDFCAFILE: 06. Orkidea & Solarstone - Slowmotion III (Extended Mix).flac Size: 56825878 Hash: 01777869A126DEE68244556CB84996CD Accuracy: -m0 Conclusion: CDDA 100% Signature: 522F90841291536E9B1E8EAE363BE9E6CF6D0E25FILE: 05. Orkidea - Revolution Industrielle (Extended Mix).flac Size: 67899955 Hash: D06FE256752DCC1667390A89CC44E113 Accuracy: -m0 Conclusion: CDDA 100% Signature: D7DC544B8D4452A175C101DE8D461ACB9259E9A2FILE: 04. Orkidea - p-Machinery (Extended Mix).flac Size: 53999287 Hash: 2B9808A26D45BAD44094AEBD475C3F78 Accuracy: -m0 Conclusion: CDDA 100% Signature: C63D51CE05A41C6C4E7C264FB9C9D82536A0201EFILE: 03. Orkidea feat. Ben Lord - Neo Romance (Extended Mix).flac Size: 41150322 Hash: 7773D5013C601FC13281D4F78AD42277 Accuracy: -m0 Conclusion: CDDA 100% Signature: 7BDE90F0CB38EBB32183CE3F3146AA8CB9680B3DFILE: 02. Orkidea - Dreamers of Dreams (Extended Mix).flac Size: 56051958 Hash: 296E8DA21CBEBBB96C3897D29EC8A6E6 Accuracy: -m0 Conclusion: CDDA 100% Signature: FBBF01BF50B165BB23CC87B1CFA79A3B2CCFA2E4FILE: 01. Orkidea - My Sunset (Extended Mix).flac Size: 42350306 Hash: F83084F60C8B423507D3984287C479E0 Accuracy: -m0 Conclusion: CDDA 100% Signature: E9431EE827488736D4C0AE433B3AC13CABB2E310FILE: 25. Giuseppe Ottaviani & Orkidea - North Star (Factor B Southern Star Remix).flac Size: 63307357 Hash: 19CD590214716CE244461B5E0BBDFE82 Accuracy: -m0 Conclusion: CDDA 100% Signature: 00D221FB6ECD3B1094DD2BD87E2B856BF981F721FILE: 24. Orkidea - Purity (Peetu S. Remix).flac Size: 53467769 Hash: 7FAD08A796842A36EB70B7FA5085A122 Accuracy: -m0 Conclusion: CDDA 100% Signature: 300C054095A9142C11F0088AC9E59DD96F4AE678FILE: 23. Orkidea - Purity (Nicholas Bennison Remix).flac Size: 60925727 Hash: 729621BC8EF99581678216B6C789A792 Accuracy: -m0 Conclusion: CDDA 100% Signature: 6682E412045BCA114EED500734D605C297CFB2FAFILE: 22. Orkidea - Purity (Sneijder Remix).flac Size: 52810567 Hash: CEBDC133EE200B2EBB939FCE57221399 Accuracy: -m0 Conclusion: CDDA 100% Signature: 0CD31015D56B330E7257676DE96353FCDBC569CAFILE: 21. Orkidea - Redemption (Tempo Giusto Remix).flac Size: 52299504 Hash: C250683D869C43811BCC0801281E24D1 Accuracy: -m0 Conclusion: CDDA 100% Signature: A1CC5592ABA37159552CC3A3DF5C2789FC8A4BABFILE: 20. Orkidea - Nana (Gai Barone Remix).flac Size: 65215717 Hash: 6A016D86CDB96D5225C2799766BECFC5 Accuracy: -m0 Conclusion: CDDA 99% Signature: E7804A688B6FC96BB7F8BB0E492ED99326222A9CFILE: 19. Orkidea - Nana (Jerome Isma-Ae Remix).flac Size: 55863778 Hash: DF2348E673028ACA6D32423C42A0FA5E Accuracy: -m0 Conclusion: CDDA 100% Signature: 1F55161A7E347A5B792DCAAB239FE37575FE69B4FILE: 18. Orkidea & Lowland - Glowing Skies (Solarstone Pure Mix).flac Size: 58024872 Hash: 59B9568FC784EB4F63ADE53CE09F7580 Accuracy: -m0 Conclusion: CDDA 100% Signature: 3EC106DA11D88D05558D9490F92CE27F1208D7DDFILE: 17. Orkidea feat. Sami Uotila - Strange World (Tom & Hills Remix).flac Size: 45686127 Hash: 9AAEAC5F2462A51051BDA3A6A9D78B1C Accuracy: -m0 Conclusion: CDDA 100% Signature: CC3507661E76206DA2BFF121AF34EED1EFDDC99A

Compilations(2005) DJ Orkidea - A Place Called Happiness (Universal [987 467-0])

Источник (релизер): Trance_Ufa
Жанр: Trance
Носитель: CD
Страна-производитель диска: (Finland)
Год издания: 2005
Издатель (лейбл): Universal
Номер по каталогу: 987 467-0
Аудиокодек: FLAC (*.flac)
Тип рипа: image+.cue
Битрейт аудио: lossless
Продолжительность: 01:15:50
Наличие сканов в содержимом раздачи: нет
Треклист:
01. Orkidea vs. Marc Mitchell - Eternal Love (9:31)
02. Jose Zamora & Damian DP - Transatlantic (Andy Moor Remix) (7:56)
03. Orkidea - Beautiful (Marc Mitchell Remix) (8:04)
04. Super8 vs. DJ Tab - Helsinki Scorchin' (7:02)
05. Tiesto - UR (Junkie XL Remix) (6:23)
06. Way Out West - Killa (DJ Orkidea Remix) (7:35)
07. Slusnik Luna vs. Lowland - Last Train To Trancentral (6:18)
08. Dallas Superstars vs. Orkidea - Revolution (8:42)
09. Beat Pushers - RHT (Dallas Superstars Remix) (5:45)
10. Orkidea - Embrace (Orkidea vs. Super8 Remix) (8:30)

Лог создания рипа

Exact Audio Copy V0.99 prebeta 3 from 28. July 2007
EAC extraction logfile from 24. November 2009, 23:49
Various / A Place Called Happiness Mixed By Dj Orkidea
Used drive : TSSTcorpCD/DVDW TS-H552L Adapter: 1 ID: 0
Read mode : SecureUtilize accurate stream : YesDefeat audio cache : YesMake use of C2 pointers : No
Read offset correction : 6Overread into Lead-In and Lead-Out : NoFill up missing offset samples with silence : YesDelete leading and trailing silent blocks : NoNull samples used in CRC calculations : YesUsed interface : Native Win32 interface for Win NT & 2000
Used output format : User Defined EncoderSelected bitrate : 1024 kBit/sQuality : HighAdd ID3 tag : YesCommand line compressor : C:\Program Files\Exact Audio Copy\FLAC\FLAC.EXEAdditional command line options : -V -8 -T "artist=%a" -T "title=%t" -T "album=%g" -T "date=%y" -T "tracknumber=%n" -T "genre=%m" %s
TOC of the extracted CD
Track | Start | Length | Start sector | End sector --------------------------------------------------------- 1 | 0:00.00 | 9:31.07 | 0 | 42831 2 | 9:31.07 | 7:56.13 | 42832 | 78544 3 | 17:27.20 | 8:04.57 | 78545 | 114901 4 | 25:32.02 | 7:02.18 | 114902 | 146569 5 | 32:34.20 | 6:23.73 | 146570 | 175367 6 | 38:58.18 | 7:35.14 | 175368 | 209506 7 | 46:33.32 | 6:18.46 | 209507 | 237902 8 | 52:52.03 | 8:42.23 | 237903 | 277075 9 | 61:34.26 | 5:45.69 | 277076 | 303019 10 | 67:20.20 | 8:30.49 | 303020 | 341318
Range status and errors
Selected range
Filename E:\Various - A Place Called Happiness Mixed By Dj Orkidea.wav
Peak level 100.0 % Range quality 99.9 % Test CRC 3E68CA94 Copy CRC 3E68CA94 Copy OK
No errors occurred
AccurateRip summary
Track 1 not present in databaseTrack 2 not present in databaseTrack 3 not present in databaseTrack 4 not present in databaseTrack 5 not present in databaseTrack 6 not present in databaseTrack 7 not present in databaseTrack 8 not present in databaseTrack 9 not present in databaseTrack 10 not present in database
None of the tracks are present in the AccurateRip database
End of status report

Содержание индексной карты (.CUE)

REM GENRE TranceREM DATE 2005REM DISCID 9211C60AREM COMMENT "ExactAudioCopy v0.99pb3"PERFORMER "Dj Orkidea"TITLE "A Place Called Happiness"FILE "DJ Orkidea - A Place Called Happiness (Universal [987 467-0]).flac" FLAC TRACK 01 AUDIO TITLE "Eternal Love" PERFORMER "Orkidea vs. Marc Mitchell" INDEX 01 00:00:00 TRACK 02 AUDIO TITLE "Transatlantic (Andy Moor Remix)" PERFORMER "Jose Zamora & Damian DP" INDEX 01 09:31:07 TRACK 03 AUDIO TITLE "Beautiful (Marc Mitchell Remix)" PERFORMER "Orkidea" INDEX 01 17:27:20 TRACK 04 AUDIO TITLE "Helsinki Scorchin'" PERFORMER "Super8 & Dj Tab" INDEX 01 25:32:02 TRACK 05 AUDIO TITLE "UR (Junkie XL Remix)" PERFORMER "Dj Tiesto" INDEX 01 32:34:20 TRACK 06 AUDIO TITLE "Killa (Orkidea Remix)" PERFORMER "Way Out West" INDEX 01 38:58:18 TRACK 07 AUDIO TITLE "Last Train To Trancentral" PERFORMER "Slusnik Luna vs. Lowland" INDEX 01 46:33:32 TRACK 08 AUDIO TITLE "Revolution" PERFORMER "Dallas Superstars vs. Orkidea" INDEX 01 52:52:03 TRACK 09 AUDIO TITLE "RHT (Dallas Superstars Remix)" PERFORMER "Beatpushers" INDEX 01 61:34:26 TRACK 10 AUDIO TITLE "Embrace (Orkidea vs. Super8 Remix)" PERFORMER "Orkidea" INDEX 01 67:20:20

(2012) VA - Solarstone + Orkidea - Solarstone Presents... Pure Trance (Black Hole Recordings [Black Hole CD 100])

Источник (релизер): serginho199 (Собственный диск.)
Жанр: Trance
Носитель: CD
Страна-производитель диска: (Netherlands)
Год издания: 2012
Издатель (лейбл): Black Hole Recordings
Номер по каталогу: BHCD100
Тип рипа: image+.cue
Продолжительность: CD1 - 01:17:36, CD2 - 01:18:26
Наличие сканов в содержимом раздачи: Да. (600dpi)
Трейклист:

Disc 1

01. Solarstone & Clare Stagg - The Spell (Pure Intro Mix) (05:10)
02. Almar - Evening Star (03:45)
03. Lemon - We Can't Fly (Solarstone Pure Mix) (06:38)
04. Ehren Stowers - Split Source (03:03)
05. Kyau & Albert & Ronski Speed - Euphonia (Ronski Speed Mix) (04:57)
06. Giuseppe Ottaviani - Earthbeat (04:12)
07. Delerium & Michael Logen - Days Turn Into Nights (Solarstone Pure Mix) (05:57)
08. Solarstone & Giuseppe Ottaviani - Falcons (Solarstone Extended Mix) (05:01)
09. A.R.D.I. - Hopeful (03:29)
10. Omnia - Infina (03:00)
11. C-Systems & Bushi - Ari (Suncatcher Exclusive Remix) (04:03)
12. Solarstone - Voyager (Thomas Datt Remix) (04:21)
13. Temple One - In Her Eyes (03:14)
14. Rex Mundi - Steaming Waterfalls (02:47)
15. Mark Pledger - A New World (04:48)
16. Walsh & McAuley & David Berkeley - Sail On The Waves (Solarstone Pure Mix) (06:53)
17. Solarstone - Seven Cities (Solarstone Pure Mix Edit) (06:09)

Лог создания рипа

Exact Audio Copy V1.0 beta 3 from 29. August 2011
EAC extraction logfile from 6. November 2014, 10:00
VA / Solarstone Presents... Pure Trance - CD1 (Mixed by Solarstone)
Used drive : TSSTcorpCDDVDW SH-224DB Adapter: 0 ID: 0
Read mode : SecureUtilize accurate stream : YesDefeat audio cache : YesMake use of C2 pointers : No
Read offset correction : 6Overread into Lead-In and Lead-Out : NoFill up missing offset samples with silence : YesDelete leading and trailing silent blocks : NoNull samples used in CRC calculations : YesUsed interface : Native Win32 interface for Win NT & 2000
Used output format : User Defined EncoderSelected bitrate : 128 kBit/sQuality : HighAdd ID3 tag : NoCommand line compressor : C:\Program Files (x86)\Exact Audio Copy\Flac\flac.exeAdditional command line options : -8 -V -T "Date=%year%" -T "Genre=%genre%" -T "COMMENT=ripped by serginho199®" %source%
TOC of the extracted CD
Track | Start | Length | Start sector | End sector --------------------------------------------------------- 1 | 0:00.00 | 5:10.71 | 0 | 23320 2 | 5:10.71 | 3:45.69 | 23321 | 40264 3 | 8:56.65 | 6:38.66 | 40265 | 70180 4 | 15:35.56 | 3:03.35 | 70181 | 83940 5 | 18:39.16 | 4:56.28 | 83941 | 106168 6 | 23:35.44 | 4:13.05 | 106169 | 125148 7 | 27:48.49 | 5:57.25 | 125149 | 151948 8 | 33:45.74 | 5:01.20 | 151949 | 174543 9 | 38:47.19 | 3:29.51 | 174544 | 190269 10 | 42:16.70 | 3:00.59 | 190270 | 203828 11 | 45:17.54 | 4:03.22 | 203829 | 222075 12 | 49:21.01 | 4:21.13 | 222076 | 241663 13 | 53:42.14 | 3:14.52 | 241664 | 256265 14 | 56:56.66 | 2:47.00 | 256266 | 268790 15 | 59:43.66 | 4:48.55 | 268791 | 290445 16 | 64:32.46 | 6:53.67 | 290446 | 321487 17 | 71:26.38 | 6:09.49 | 321488 | 349211
Range status and errors
Selected range
Filename C:\EACrips\VA - Solarstone + Orkidea - Solarstone Presents... Pure Trance (2012) {Black Hole CD 100}\VA - Solarstone Presents... Pure Trance - CD1 (Mixed by Solarstone).wav
Peak level 96.6 % Extraction speed 3.4 X Range quality 100.0 % Test CRC 32CC8E2D Copy CRC 32CC8E2D Copy OK
No errors occurred
AccurateRip summary
Track 1 accurately ripped (confidence 3) [59918B5B] (AR v2)Track 2 accurately ripped (confidence 3) [2C70D1E9] (AR v2)Track 3 accurately ripped (confidence 3) [3B676296] (AR v2)Track 4 accurately ripped (confidence 3) [9C35D72C] (AR v2)Track 5 accurately ripped (confidence 3) [6F8D0670] (AR v2)Track 6 accurately ripped (confidence 3) [B014AA51] (AR v2)Track 7 accurately ripped (confidence 3) [7C563862] (AR v2)Track 8 accurately ripped (confidence 3) [D557B5F5] (AR v2)Track 9 accurately ripped (confidence 3) [57431EA9] (AR v2)Track 10 accurately ripped (confidence 3) [0E270F2B] (AR v2)Track 11 accurately ripped (confidence 3) [E551D374] (AR v2)Track 12 accurately ripped (confidence 3) [3C7E26E2] (AR v2)Track 13 accurately ripped (confidence 3) [3AA61B8D] (AR v2)Track 14 accurately ripped (confidence 3) [C95A05A6] (AR v2)Track 15 accurately ripped (confidence 3) [0F2EF67A] (AR v2)Track 16 accurately ripped (confidence 3) [6B5A7EBB] (AR v2)Track 17 accurately ripped (confidence 3) [CD13C61C] (AR v2)
All tracks accurately ripped
End of status report
---- CUETools DB Plugin V2.1.4
[CTDB TOCID: _um.Wn0wbLZYWJ1KmMOUySj.r44-] foundSubmit result: _um.Wn0wbLZYWJ1KmMOUySj.r44- has been confirmedTrack | CTDB Status 1 | (3/3) Accurately ripped 2 | (3/3) Accurately ripped 3 | (3/3) Accurately ripped 4 | (3/3) Accurately ripped 5 | (3/3) Accurately ripped 6 | (3/3) Accurately ripped 7 | (3/3) Accurately ripped 8 | (3/3) Accurately ripped 9 | (3/3) Accurately ripped 10 | (3/3) Accurately ripped 11 | (3/3) Accurately ripped 12 | (3/3) Accurately ripped 13 | (3/3) Accurately ripped 14 | (3/3) Accurately ripped 15 | (3/3) Accurately ripped 16 | (3/3) Accurately ripped 17 | (3/3) Accurately ripped
==== Log checksum B4E52C2FBBDD3D8BB5FAC2BC33CEB7295369A60B2B2C496096493E924F84A2EB ====

Содержание индексной карты (.CUE)

REM GENRE TranceREM DATE 2012REM DISCID FB123011REM COMMENT "ExactAudioCopy v1.0b3"CATALOG 8715197010023PERFORMER "VA"TITLE "Solarstone Presents... Pure Trance - CD1 (Mixed by Solarstone)"FILE "VA - Solarstone Presents... Pure Trance - CD1 (Mixed by Solarstone).flac" WAVE TRACK 01 AUDIO TITLE "The Spell (Pure Intro Mix)" PERFORMER "Solarstone & Clare Stagg" INDEX 01 00:00:00 TRACK 02 AUDIO TITLE "Evening Star" PERFORMER "Almar" INDEX 01 05:10:71 TRACK 03 AUDIO TITLE "We Can't Fly (Solarstone Pure Mix)" PERFORMER "Lemon" INDEX 01 08:56:65 TRACK 04 AUDIO TITLE "Split Source" PERFORMER "Ehren Stowers" INDEX 01 15:35:56 TRACK 05 AUDIO TITLE "Euphonia (Ronski Speed Mix)" PERFORMER "Kyau & Albert with Ronski Speed" INDEX 01 18:39:16 TRACK 06 AUDIO TITLE "Earthbeat" PERFORMER "Giuseppe Ottaviani" INDEX 01 23:35:44 TRACK 07 AUDIO TITLE "Days Turn Into Nights (Solarstone Pure Mix)" PERFORMER "Delerium feat. Michael Logen" INDEX 01 27:48:49 TRACK 08 AUDIO TITLE "Falcons (Solarstone Extended Mix)" PERFORMER "Solarstone with Giuseppe Ottaviani" INDEX 01 33:45:74 TRACK 09 AUDIO TITLE "Hopeful" PERFORMER "A.R.D.I" INDEX 01 38:47:19 TRACK 10 AUDIO TITLE "Infina" PERFORMER "Omnia" INDEX 01 42:16:70 TRACK 11 AUDIO TITLE "Ari (Suncatcher Exclusive Remix)" PERFORMER "C-Systems & Bushi" INDEX 01 45:17:54 TRACK 12 AUDIO TITLE "Voyager (Thomas Datt Remix)" PERFORMER "Solarstone" INDEX 01 49:21:01 TRACK 13 AUDIO TITLE "In Her Eyes" PERFORMER "Temple One" INDEX 01 53:42:14 TRACK 14 AUDIO TITLE "Steaming Waterfalls" PERFORMER "Rex Mundi" INDEX 01 56:56:66 TRACK 15 AUDIO TITLE "A New World" PERFORMER "Mark Pledger" INDEX 01 59:43:66 TRACK 16 AUDIO TITLE "Sail On The Waves (Solarstone Pure Mix)" PERFORMER "Walsh & McAuley feat. David Berkeley" INDEX 01 64:32:46 TRACK 17 AUDIO TITLE "Seven Cities (Solarstone Pure Mix)" PERFORMER "Solarstone" INDEX 01 71:26:38

Disc 2

01. Orkidea - Unity (Pure Intro Mix) (02:56)
02. Orkidea - Sun Down (Michael Cassette Remix) (05:52)
03. Kay-D - Avalanche (05:39)
04. Lowland - Cheap Shrink (05:55)
05. Winkee - Whisper (Simon Templar Refresh) (05:58)
06. Way Out West - Secret (Allende Remix) (05:18)
07. Slusnik Luna - Valssi (Orkidea Mix) (06:56)
08. Nicholas Bennison - Sulfur (Light Mix) (05:34)
09. Steve Brian - Vueltas (Thomas Datt Instrumental Mix) (05:05)
10. Protoculture - Perpetual Motion (05:25)
11. Paul Oakenfold - Southern Sun (Orkidea's Tribute Mix) (06:37)
12. Future Disciple - No Man's Land (05:19)
13. Vibrasphere - Autumn Lights (Mindwave Remix) (05:56)
14. Orkidea - Unity (Solarstone's Metabreaks Remix) (05:49)

Лог создания рипа

Exact Audio Copy V1.0 beta 3 from 29. August 2011
EAC extraction logfile from 6. November 2014, 10:51
VA / Solarstone Presents... Pure Trance - CD2 (Mixed by Orkidea)
Used drive : TSSTcorpCDDVDW SH-224DB Adapter: 0 ID: 0
Read mode : SecureUtilize accurate stream : YesDefeat audio cache : YesMake use of C2 pointers : No
Read offset correction : 6Overread into Lead-In and Lead-Out : NoFill up missing offset samples with silence : YesDelete leading and trailing silent blocks : NoNull samples used in CRC calculations : YesUsed interface : Native Win32 interface for Win NT & 2000
Used output format : User Defined EncoderSelected bitrate : 128 kBit/sQuality : HighAdd ID3 tag : NoCommand line compressor : C:\Program Files (x86)\Exact Audio Copy\Flac\flac.exeAdditional command line options : -8 -V -T "Date=%year%" -T "Genre=%genre%" -T "COMMENT=ripped by serginho199®" %source%
TOC of the extracted CD
Track | Start | Length | Start sector | End sector --------------------------------------------------------- 1 | 0:00.00 | 2:56.53 | 0 | 13252 2 | 2:56.53 | 5:52.23 | 13253 | 39675 3 | 8:49.01 | 5:39.60 | 39676 | 65160 4 | 14:28.61 | 5:55.33 | 65161 | 91818 5 | 20:24.19 | 5:58.55 | 91819 | 118723 6 | 26:22.74 | 5:18.17 | 118724 | 142590 7 | 31:41.16 | 6:56.26 | 142591 | 173816 8 | 38:37.42 | 5:34.42 | 173817 | 198908 9 | 44:12.09 | 5:05.06 | 198909 | 221789 10 | 49:17.15 | 5:25.60 | 221790 | 246224 11 | 54:43.00 | 6:37.62 | 246225 | 276061 12 | 61:20.62 | 5:19.70 | 276062 | 300056 13 | 66:40.57 | 5:56.43 | 300057 | 326799 14 | 72:37.25 | 5:49.23 | 326800 | 352997
Range status and errors
Selected range
Filename C:\EACrips\VA - Solarstone + Orkidea - Solarstone Presents... Pure Trance (2012) {Black Hole CD 100}\VA - Solarstone Presents... Pure Trance - CD2 (Mixed by Orkidea).wav
Peak level 96.6 % Extraction speed 3.4 X Range quality 100.0 % Test CRC A14A25F3 Copy CRC A14A25F3 Copy OK
No errors occurred
AccurateRip summary
Track 1 accurately ripped (confidence 2) [E2018AC0] (AR v2)Track 2 accurately ripped (confidence 2) [8E104A41] (AR v2)Track 3 accurately ripped (confidence 2) [194E73A8] (AR v2)Track 4 accurately ripped (confidence 2) [2D536478] (AR v2)Track 5 accurately ripped (confidence 2) [B2E06DB3] (AR v2)Track 6 accurately ripped (confidence 2) [80F953FF] (AR v2)Track 7 accurately ripped (confidence 2) [C364FC47] (AR v2)Track 8 accurately ripped (confidence 2) [CF78D4F4] (AR v2)Track 9 accurately ripped (confidence 2) [6A2EE9F7] (AR v2)Track 10 accurately ripped (confidence 2) [E3FB993F] (AR v2)Track 11 accurately ripped (confidence 2) [B64E7BA0] (AR v2)Track 12 accurately ripped (confidence 2) [ABDC0C42] (AR v2)Track 13 accurately ripped (confidence 2) [F3CCA050] (AR v2)Track 14 accurately ripped (confidence 2) [FE298294] (AR v2)
All tracks accurately ripped
End of status report
---- CUETools DB Plugin V2.1.4
[CTDB TOCID: o.7rB5GtsS2PIw_bxp2zkNoFi1U-] foundSubmit result: o.7rB5GtsS2PIw_bxp2zkNoFi1U- has been confirmedTrack | CTDB Status 1 | (4/4) Accurately ripped 2 | (4/4) Accurately ripped 3 | (4/4) Accurately ripped 4 | (4/4) Accurately ripped 5 | (4/4) Accurately ripped 6 | (4/4) Accurately ripped 7 | (4/4) Accurately ripped 8 | (4/4) Accurately ripped 9 | (4/4) Accurately ripped 10 | (4/4) Accurately ripped 11 | (4/4) Accurately ripped 12 | (4/4) Accurately ripped 13 | (4/4) Accurately ripped 14 | (4/4) Accurately ripped
==== Log checksum A2D7622E22C23E286883A4F193501F3220E7F137DBDF4A1953E5B98893D458D8 ====

Содержание индексной карты (.CUE)

REM GENRE TranceREM DATE 2012REM DISCID CD12620EREM COMMENT "ExactAudioCopy v1.0b3"CATALOG 8715197010023PERFORMER "VA"TITLE "Solarstone Presents... Pure Trance - CD2 (Mixed by Orkidea)"FILE "VA - Solarstone Presents... Pure Trance - CD2 (Mixed by Orkidea).flac" WAVE TRACK 01 AUDIO TITLE "Unity (Pure Intro Mix)" PERFORMER "Orkidea" INDEX 01 00:00:00 TRACK 02 AUDIO TITLE "Sun Down (Michael Cassette Remix)" PERFORMER "Orkidea" INDEX 01 02:56:53 TRACK 03 AUDIO TITLE "Avalanche" PERFORMER "Kay-D" INDEX 01 08:49:01 TRACK 04 AUDIO TITLE "Cheap Shrink" PERFORMER "Lowland" INDEX 01 14:28:61 TRACK 05 AUDIO TITLE "Whisper (Simon Templar Refresh)" PERFORMER "Winkee" INDEX 01 20:24:19 TRACK 06 AUDIO TITLE "Secret (Allende Remix)" PERFORMER "Way Out West" INDEX 01 26:22:74 TRACK 07 AUDIO TITLE "Valssi (Orkidea Mix)" PERFORMER "Slusnik Luna" INDEX 01 31:41:16 TRACK 08 AUDIO TITLE "Sulfur (Light Mix)" PERFORMER "Nicholas Bennison" INDEX 01 38:37:42 TRACK 09 AUDIO TITLE "Vueltas (Thomas Datt Instrumental Mix)" PERFORMER "Steve Brian" INDEX 01 44:12:09 TRACK 10 AUDIO TITLE "Perpetual Motion" PERFORMER "Protoculture" INDEX 01 49:17:15 TRACK 11 AUDIO TITLE "Southern Sun (Orkidea's Tribute Mix)" PERFORMER "Paul Oakenfold" INDEX 01 54:43:00 TRACK 12 AUDIO TITLE "No Man's Land" PERFORMER "Future Disciple" INDEX 01 61:20:62 TRACK 13 AUDIO TITLE "Autumn Lights (Mindwave Remix)" PERFORMER "Vibrasphere" INDEX 01 66:40:57 TRACK 14 AUDIO TITLE "Unity (Solarstone's Metabreaks Remix)" PERFORMER "Orkidea" INDEX 01 72:37:25
[ru-zerkalo.org]_t_4989474
Torrent: Registered ·  [ 2017-05-31 16:45 ] ·  b8a9348ac26d0de387721d7330c2078f20995ef1

143 KB

Status: checked
Completed: 2 times
Size: 15.98 GB
Rating: 
(Votes: 0)
Say thanks: 0  Thanks
 
Похожие темы
[Profile] [PM]

Guest

Longevity: 50 years

Post 23-Oct-2019 06:59 (after 2 years 4 months)

[Quote]

ну встаньте
ж кто нить на раздачу
[Profile] [PM]
Display posts from previous:    
Reply to topic

The time now is: Today 22:24

All times are GMT + 7 Hours



You cannot post new topics in this forum
You cannot reply to topics in this forum
You cannot edit your posts in this forum
You cannot delete your posts in this forum
You cannot vote in polls in this forum
You cannot attach files in this forum
You can download files in this forum