Register · 
Username: Password:
 ·  Forgot password?

Освободите Вилли-2: Новое приключение / Free Willy 2: The Adventure Home (Дуайт Литтл / Dwight Little) [1995, США, Детский, Семейный, Приключения, HDRip] AVO (В. Горчаков) + Original Eng

Reply to topic
DL-List and Torrent activity [Update пиров]
Size:  1.46 GB   |    Registered:  2 years 9 months   |    Completed:  0 times
DL-List: None

Seeder not seen: Never

 
   
 
 
 
Author Message

FragoMan ®

Gender:

Longevity: 6 years 4 months

Posts: 25034

Post 09-May-2017 23:46

[Quote]

Освободите Вилли-2: Новое приключение / Free Willy 2: The Adventure Home
Страна: США
Жанр: Детский, Семейный, Приключения
Год выпуска: 1995
Продолжительность: 1:37:52
Перевод: Авторский (одноголосый закадровый) В. Горчаков
Cубтитры: нет
Оригинальная аудиодорожка: английский
Режиссер: Дуайт Литтл / Dwight Little
В ролях: Джейсон Джеймс Рихтер, Френсис Капра, Мэри Кейт Шеллхардт, Аугуст Шелленберг, Майкл Мэдсен, Джейн Эткинсон, Майкелти Уильямсон, Элизабет Пенья, Джон Тенни, Пол Туэрпе, М. Эммет Уолш, Джон Консидайн, Стив Кэхэн, Нил Матараццо, Ал Сапиенца
Описание: Прошло два года с тех пор, как кит Вилли был выпущен на волю. Во время каникул Джесси с приемными родителями отправляются на побережье, возле которого видели стаю касаток. Джесси мечтает вновь встретиться со своим другом Вилли. Однако встреча старых друзей омрачена катастрофой: неподалеку сел на мель нефтяной танкер. Выливающаяся из него нефть превращает некогда прекрасный уголок природы в смертельную ловушку для всего живого. Теперь перед Джесси стоит непростая задача спасти целую семью морских гигантов.
Доп. информация: За звуковую дорожку В. Горчакова спасибо svsullen
Видеоряд найден в сети
Сэмпл: https://yadi.sk/i/MsvQEPIQ3HRE2h
Качество видео: HDRip
Формат файла: AVI
Видео: XviD, 720x304 (2.35:1), 23.976 fps, 1 733 Kbps
Аудио: AC3 , 48 kHz , 192.00 kbps avg , 2/0 (L,R) ch
Аудио 2: AC3 , 48 kHz , 192.00 kbps avg , 2/0 (L,R) ch

MediaInfo

Complete name Освободите Вилли-2 1995 (Gorchakov).avi
Format : AVI
Format/Info : Audio Video Interleave
File size : 1.46 GiB
Duration : 1h 37mn
Overall bit rate : 2 131 Kbps
Writing application : VirtualDubMod 1.5.10.3 | www.virtualdub-fr.org || (build 2550/release)
Writing library : VirtualDubMod build 2550/release
Video
ID : 0
Format : MPEG-4 Visual
Format profile : Advanced Simple@L5
Format settings, BVOP : 1
Format settings, QPel : No
Format settings, GMC : No warppoints
Format settings, Matrix : Custom
Codec ID : XVID
Codec ID/Hint : XviD
Duration : 1h 37mn
Bit rate : 1 733 Kbps
Width : 720 pixels
Height : 304 pixels
Display aspect ratio : 2.35:1
Frame rate : 23.976 (23976/1000) fps
Color space : YUV
Chroma subsampling : 4:2:0
Bit depth : 8 bits
Scan type : Progressive
Compression mode : Lossy
Bits/(Pixel*Frame) : 0.330
Stream size : 1.18 GiB (81%)
Writing library : XviD 73
Audio #1
ID : 1
Format : AC-3
Format/Info : Audio Coding 3
Mode extension : CM (complete main)
Format settings, Endianness : Big
Codec ID : 2000
Duration : 1h 37mn
Bit rate mode : Constant
Bit rate : 192 Kbps
Channel(s) : 2 channels
Channel positions : Front: L R
Sampling rate : 48.0 KHz
Frame rate : 31.250 fps (1536 spf)
Compression mode : Lossy
Stream size : 134 MiB (9%)
Alignment : Split accross interleaves
Interleave, duration : 42 ms (1.00 video frame)
Interleave, preload duratio : 500 ms
Audio #2
ID : 2
Format : AC-3
Format/Info : Audio Coding 3
Mode extension : CM (complete main)
Format settings, Endianness : Big
Codec ID : 2000
Duration : 1h 37mn
Bit rate mode : Constant
Bit rate : 192 Kbps
Channel(s) : 2 channels
Channel positions : Front: L R
Sampling rate : 48.0 KHz
Frame rate : 31.250 fps (1536 spf)
Compression mode : Lossy
Stream size : 134 MiB (9%)
Alignment : Split accross interleaves
Interleave, duration : 42 ms (1.00 video frame)
Interleave, preload duratio : 500 ms
[ru-zerkalo.org]_t_5394765
Torrent: Registered ·  [ 2017-05-09 23:45 ] ·  b55b71a3f32d16e9f60859859e9e0c405e582f85

15 KB

Status: checked
Completed: 0 times
Size: 1.46 GB
Rating: 
(Votes: 0)
Say thanks: 0  Thanks
 
Похожие темы
[Profile] [PM]
Display posts from previous:    
Reply to topic

The time now is: Today 15:05

All times are GMT + 7 Hours



You cannot post new topics in this forum
You cannot reply to topics in this forum
You cannot edit your posts in this forum
You cannot delete your posts in this forum
You cannot vote in polls in this forum
You cannot attach files in this forum
You can download files in this forum