Register · 
Username: Password:
 ·  Forgot password?

Медальон / The Medallion (Гордон Чан / Gordon Chan) [2003, Гонконг, США, Комедийный боевик, BDRip] AVO (Сергей Визгунов) + Original Eng

Reply to topic
DL-List and Torrent activity [Update пиров]
Size:  1.46 GB   |    Registered:  2 years 5 months   |    Completed:  1 time

Seeder not seen: 1 year 1 month

 
   
 
 
 
Author Message

temkin_88 ®

Gender:

Longevity: 6 years

Posts: 17315

Post 09-May-2017 23:47

[Quote]

Медальон / The Medallion
Страна: Гонконг, США
Жанр: Комедийный боевик
Год выпуска: 2003
Продолжительность: 01:28:27
Перевод: Авторский (одноголосый закадровый) Сергей Визгунов
Cубтитры: нет
Оригинальная аудиодорожка: английский
Режиссер: Гордон Чан / Gordon Chan
В ролях: Джеки Чан, Ли Эванс, Клэр Форлани, Джулиан Сэндс, Джон Рис-Дэвис, Энтони Вон, Кристи Чунг, Йохан Майерс, Алекс Бао, Сиу-Минг Лау
Описание: Гонконгскому полицейскому Эдди Янгу удается уцелеть в абсолютно безнадежной ситуации. Жизнь ему спасает таинственный магический медальон. Это старинное украшение наделяет Эдди невероятной, сверхчеловеческой мощью, превратив в непобедимого воина. Янг вместе со своей напарницей Николь пытается разгадать тайну медальона, а заодно и дать отпор членам древнего воинского ордена, пытающимся завладеть могущественной реликвией…
Доп. информация: Дорожка с С. Визгуновым синхронизирована и наложена ale_x2008 при помощи Sony Vegas и VirtualDubMod.
За оцифрованную с VHS дорожку благодарим - dayanat76
P.S. 01:23:10 - 01:23:13 - вставка с переводом А. Карповского.


Сэмпл: https://yadi.sk/i/w0TItxVu3GnX4W
Качество видео: BDRip
Формат файла: AVI
Видео: XviD build 65, 720x304 (2.37:1), 23.976 fps, 1957 kbps avg, 0.37 bit/pixel
Аудио: AC3 Dolby Digital, 48000Hz 2/0 (L,R) ch (mono), 192.00 kbps avg
Аудио 2: AC3 Dolby Digital, 48000Hz 2/0 (L,R) ch, 192.00 kbps avg

MediaInfo

Медальон - The Medallion [by ale_x2008].avi
Format : AVI
Format/Info : Audio Video Interleave
File size : 1.46 GiB
Duration : 1 h 28 min
Overall bit rate : 2 356 kb/s
Movie name : Медальон / The Medallion (2003) BDRip
Director : Gellard
Genre : фэнтези, боевик, комедия
Writing application : VirtualDubMod 1.5.10.2 (build 2540/release)
Copyright : ale_x2008 | Edich2
Comment :
Video
ID : 0
Format : MPEG-4 Visual
Format profile : Advanced Simple@L5
Format settings, BVOP : 1
Format settings, QPel : No
Format settings, GMC : No warppoints
Format settings, Matrix : Custom
Codec ID : XVID
Codec ID/Hint : XviD
Duration : 1 h 28 min
Bit rate : 1 958 kb/s
Width : 720 pixels
Height : 304 pixels
Display aspect ratio : 2.35:1
Frame rate : 23.976 (24000/1001) FPS
Color space : YUV
Chroma subsampling : 4:2:0
Bit depth : 8 bits
Scan type : Progressive
Compression mode : Lossy
Bits/(Pixel*Frame) : 0.373
Stream size : 1.21 GiB (83%)
Writing library : XviD 65
Audio #1
ID : 1
Format : AC-3
Format/Info : Audio Coding 3
Format settings, Endianness : Big
Codec ID : 2000
Duration : 1 h 28 min
Bit rate mode : Constant
Bit rate : 192 kb/s
Channel(s) : 2 channels
Channel positions : Front: L R
Sampling rate : 48.0 kHz
Frame rate : 31.250 FPS (1536 spf)
Bit depth : 16 bits
Compression mode : Lossy
Stream size : 121 MiB (8%)
Alignment : Split accross interleaves
Interleave, duration : 42 ms (1.00 video frame)
Interleave, preload duratio : 500 ms
Service kind : Complete Main
Audio #2
ID : 2
Format : AC-3
Format/Info : Audio Coding 3
Format settings, Endianness : Big
Codec ID : 2000
Duration : 1 h 28 min
Bit rate mode : Constant
Bit rate : 192 kb/s
Channel(s) : 2 channels
Channel positions : Front: L R
Sampling rate : 48.0 kHz
Frame rate : 31.250 FPS (1536 spf)
Bit depth : 16 bits
Compression mode : Lossy
Stream size : 121 MiB (8%)
Alignment : Split accross interleaves
Interleave, duration : 42 ms (1.00 video frame)
Interleave, preload duratio : 500 ms
Service kind : Complete Main

Скриншоты


[ru-zerkalo.org]_t_5385557
Torrent: Registered ·  [ 2017-05-09 23:45 ] ·  f6963c25c255dda6683bfc8a131a7322dcd1a0c7

15 KB

Status: checked
Completed: 1 times
Size: 1.46 GB
Rating: 
(Votes: 0)
Say thanks: 0  Thanks
 
Похожие темы
[Profile] [PM]
Display posts from previous:    
Reply to topic

The time now is: Today 23:20

All times are GMT + 7 Hours



You cannot post new topics in this forum
You cannot reply to topics in this forum
You cannot edit your posts in this forum
You cannot delete your posts in this forum
You cannot vote in polls in this forum
You cannot attach files in this forum
You can download files in this forum