Register · 
Username: Password:
 ·  Forgot password?

Кольцо Нибелунгов / Ring of the Nibelungs (Ули Эдель / Uli Edel) [2004, Германия, Великобритания, ЮАР, Италия, фэнтези, приключения, DVDRip] AVO (Сергей Визгунов)

Reply to topic
DL-List and Torrent activity [Update пиров]
Size:  2.42 GB   |    Registered:  2 years 5 months   |    Completed:  0 times

Seeder not seen: Never

 
   
 
 
 
Author Message

temkin_88 ®

Gender:

Longevity: 6 years

Posts: 17316

Post 09-May-2017 23:47

[Quote]

Кольцо Нибелунгов / Ring of the Nibelungs
«Величайшая сага мира»
Страна: Германия, Великобритания, ЮАР, Италия
Жанр: фэнтези, приключения
Год выпуска: 2004
Продолжительность: 02:57:14
Перевод: Авторский (одноголосый закадровый) Сергей Визгунов
Cубтитры: нет
Режиссер: Ули Эдель / Uli Edel
В ролях: Бенно Фюрман, Кристанна Локен, Алисия Уитт, Джулиан Сэндс, Сэмюэл Уэст, Макс фон Сюдов, Роберт Паттинсон, Мави Хёрбигер, Алетта Безуиденхут, Шон Хиггс
Описание: Ha заре мира, когда Землю населяли фантастические создания, а на небе правили всесильные боги, жили люди, называвишё себя Нибелунгами. Они были богаты и могущественны, и боялись лишь одного - терроризировавшего их земли ужасногр дракона Фафнира. И тогда явился герой no имени Зигфрид. Сын кузнеца, на самом деле он был королевских кровей, хотя до поры не знал тайны своего проіісхождения. Зигфрид сокрушил Фафнира и стал хозяином его несметных сокровищ, но над этим кладом довлело проклятье. И кто бы мог подумать, что оно постигнет героя в облике синеокой валькирии Брунгильды, прекрасной королевы-воительницы Исландии... Так начинается величайшая сага в истории Европы - "Песнь о Нибелунгах"…
Король Сигмант предан своими ближайшими вассалами. Находясь в осажденном змаке, он понимает, что единственный шанс соранить свой род - это дать возможность своей жене Ситлинд и чтеырелетнему сыну Зигфриду убежать из замка через скрытый подземный ход. Мать уносит Зигфрида из замка, но успевает добраться только до реки. Смертельно раненая стрелой преследователей, она усаживает истощенного сына на плывущее бревно.На рассвете его находит кузнец и берет к себе на воспитание...Однажды ночью Зигфрид видит падение метеорита и на месте падения встречает Брунхильд, таинственную вооруженную красавицу...
Песнь о Нибелунгах"... Она вдохновила гениального Вагнера на один из главных оперных шедевров мира, a нe менее гениального Джона Р. Р. Толкиена - на создание суперэпопеи "Властелин колец"!
Доп. информация: Дорожка с С. Визгуновым подогнана под оба видеоряда и наложена ale_x2008 при помощи Sony Vegas и VirtualDubMod.
За предоставленную с DVD дорожку благодарим - ripak22mee
P.S. На краткое содержание 1-ой части фильма - перевод MVO.


Сэмпл: https://yadi.sk/i/jP6wKfnm3GkmBH
Качество видео: DVDRip
Формат файла: AVI
Видео: 720x400 (1.80:1), 25 fps, XviD build 47 ~1829 kbps avg, 0.23 bit/pixel
Аудио: AC3 Dolby Digital, 48000Hz 2/0 (L,R) ch (stereo), 192.00 kbps avg
Качество видео 2: DVDRip
Формат файла: AVI
Видео: 720x400 (1.80:1), 25 fps, XviD build 47 ~1666 kbps avg, 0.23 bit/pixel
Аудио: AC3 Dolby Digital, 48000Hz 2/0 (L,R) ch (stereo), 192.00 kbps avg

MediaInfo

Кольцо Нибелунгов - Ring of the Nibelungs [by Edich2]\Кольцо Нибелунгов - Ring of the Nibelungs.avi
Format : AVI
Format/Info : Audio Video Interleave
File size : 1.29 GiB
Duration : 1 h 30 min
Overall bit rate : 2 031 kb/s
Writing application : VirtualDubMod 1.5.10.2 (build 2540/release)
Writing library : VirtualDubMod build 2540/release
Video
ID : 0
Format : MPEG-4 Visual
Format profile : Advanced Simple@L5
Format settings, BVOP : 1
Format settings, QPel : No
Format settings, GMC : No warppoints
Format settings, Matrix : Default (H.263)
Codec ID : XVID
Codec ID/Hint : XviD
Duration : 1 h 30 min
Bit rate : 1 830 kb/s
Width : 720 pixels
Height : 400 pixels
Display aspect ratio : 16:9
Frame rate : 25.000 FPS
Color space : YUV
Chroma subsampling : 4:2:0
Bit depth : 8 bits
Scan type : Progressive
Compression mode : Lossy
Bits/(Pixel*Frame) : 0.254
Stream size : 1.16 GiB (90%)
Writing library : XviD 1.2.0.dev47 (UTC 2006-11-01)
Audio
ID : 1
Format : AC-3
Format/Info : Audio Coding 3
Format settings, Endianness : Big
Codec ID : 2000
Duration : 1 h 30 min
Bit rate mode : Constant
Bit rate : 192 kb/s
Channel(s) : 2 channels
Channel positions : Front: L R
Sampling rate : 48.0 kHz
Frame rate : 31.250 FPS (1536 spf)
Bit depth : 16 bits
Compression mode : Lossy
Stream size : 125 MiB (9%)
Alignment : Split accross interleaves
Interleave, duration : 40 ms (1.00 video frame)
Interleave, preload duratio : 500 ms
Service kind : Complete Main

Скриншоты


[ru-zerkalo.org]_t_5384739
Torrent: Registered ·  [ 2017-05-09 23:45 ] ·  73923950b42d855f3edd6ff856e05b7f9ea95c9d

13 KB

Status: checked
Completed: 0 times
Size: 2.42 GB
Rating: 
(Votes: 0)
Say thanks: 0  Thanks
 
Похожие темы
[Profile] [PM]
Display posts from previous:    
Reply to topic

The time now is: Today 22:27

All times are GMT + 7 Hours



You cannot post new topics in this forum
You cannot reply to topics in this forum
You cannot edit your posts in this forum
You cannot delete your posts in this forum
You cannot vote in polls in this forum
You cannot attach files in this forum
You can download files in this forum