OkOkOkOkOkOkOkOkOkOkOkOkOkOkOk Инки: Владыки облаков (2 серии из 2) / The Inca: Masters of the Clouds (Джаго Купер / Jago Cooper) [2015, Документальный, история, HDTVRip] | ru-zerkalo.org скачать бесплатно фильмы, музыку, книги, программы
Register · 
Username: Password:
 ·  Forgot password?

Инки: Владыки облаков (2 серии из 2) / The Inca: Masters of the Clouds (Джаго Купер / Jago Cooper) [2015, Документальный, история, HDTVRip]

Reply to topic
DL-List and Torrent activity [Update пиров]
Size:  1.81 GB   |    Registered:  2 years 3 months   |    Completed:  0 times

Seeder not seen: Never

 
   
 
 
 
Author Message

Shadow123 ®

Gender:

Longevity: 6 years 4 months

Posts: 15358

Post 09-Oct-2017 00:25

[Quote]

Инки: Владыки облаков (2 серии из 2) / The Inca: Masters of the Clouds
Дата/Год выпуска: 2015
Страна: Великобритания
Жанр: Документальный, история
Продолжительность: 2 x ~ 00:58:46
Перевод: Профессиональный (дублированный)
Русские субтитры: нет
Оригинальная аудиодорожка: английский
Режиссер: Джаго Купер / Jago Cooper
Телеканал: BBC
Описание: Д-р Джаго Купер путешествует по Перу и Эквадору, чтобы изучить природу происхождения и дать оценку достижениям одной из величайших империй, каких когда-либо видел мир. Это история о людях, которые 600 лет назад создали империю простиравшуюся от прибрежных пустынь до тропических джунглей, от берегов Тихого океана до горных равнин Чили и Аргентины. Это история богатства, власти, открытий и кровопролития. Все это случилось в одном из самых суровых уголков планеты.
качество: HDTVRip
формат: AVI
Видео: XviD 720x400 25.00fps 1800 Kbps
Аудио: Русский AC3, 2 ch, 192 Кбит/с
Аудио 2: Ангийский AC3, 2 ch, 192 Кбит/с
:
Сэмпл

Список выпусков/серий

01. Основание / Foundations
Инки построили крупнейшую доколумбовую империю Америки. В нашем первом фильме доктор Джаго Купер рассказывает, как им это удалось.
02. Столкновение империй / Clash of Empires
К началу шестнадцатого века инки покорили Анды и контролировали значительную часть Южной Америки.

MediaInfo

Format : AVIFormat/Info : Audio Video InterleaveFile size : 925 MiBDuration : 58 min 49 sOverall bit rate : 2 198 kb/sWriting application : VirtualDubMod 1.5.10.3 | www.virtualdub-fr.org || (build 2550/release)Writing library : VirtualDubMod build 2550/release
VideoID : 0Format : MPEG-4 VisualFormat profile : Advanced Simple@L5Format settings, BVOP : 1Format settings, QPel : NoFormat settings, GMC : No warppointsFormat settings, Matrix : Default (H.263)Codec ID : XVIDCodec ID/Hint : XviDDuration : 58 min 49 sBit rate : 1 800 kb/sWidth : 720 pixelsHeight : 400 pixelsDisplay aspect ratio : 16:9Frame rate : 25.000 FPSColor space : YUVChroma subsampling : 4:2:0Bit depth : 8 bitsScan type : ProgressiveCompression mode : LossyBits/(Pixel*Frame) : 0.250Stream size : 757 MiB (82%)Writing library : XviD 1.2.1 (UTC 2008-12-04)
Audio #1ID : 1Format : AC-3Format/Info : Audio Coding 3Format settings, Endianness : BigCodec ID : 2000Duration : 58 min 49 sBit rate mode : ConstantBit rate : 192 kb/sChannel(s) : 2 channelsChannel positions : Front: L RSampling rate : 48.0 kHzFrame rate : 31.250 FPS (1536 SPF)Bit depth : 16 bitsCompression mode : LossyStream size : 80.8 MiB (9%)Alignment : Split accross interleavesInterleave, duration : 40 ms (1.00 video frame)Interleave, preload duratio : 500 msService kind : Complete Main
Audio #2ID : 2Format : AC-3Format/Info : Audio Coding 3Format settings, Endianness : BigCodec ID : 2000Duration : 58 min 49 sBit rate mode : ConstantBit rate : 192 kb/sChannel(s) : 2 channelsChannel positions : Front: L RSampling rate : 48.0 kHzFrame rate : 31.250 FPS (1536 SPF)Bit depth : 16 bitsCompression mode : LossyStream size : 80.8 MiB (9%)Alignment : Split accross interleavesInterleave, duration : 40 ms (1.00 video frame)Interleave, preload duratio : 500 msService kind : Complete Main

Скриншоты

[ru-zerkalo.org]_t_5436657
Torrent: Registered ·  [ 2017-10-09 00:25 ] ·  b79c81594d4859a5e710eb89013ec170bc50bcc0

19 KB

Status: checked
Completed: 0 times
Size: 1.81 GB
Rating: 
(Votes: 0)
Say thanks: 0  Thanks
 
Похожие темы
[Profile] [PM]
Display posts from previous:    
Reply to topic

The time now is: Today 05:11

All times are GMT + 7 Hours



You cannot post new topics in this forum
You cannot reply to topics in this forum
You cannot edit your posts in this forum
You cannot delete your posts in this forum
You cannot vote in polls in this forum
You cannot attach files in this forum
You can download files in this forum