Register · 
Username: Password:
 ·  Forgot password?

Я люблю свою землю. Песни композитора Евгения Птичкина [1981, Retro, TVRip]

Reply to topic
DL-List and Torrent activity [Update пиров]
Size:  1.01 GB   |    Registered:  2 years 7 months   |    Completed:  0 times

Seeder not seen: Never

 
   
 
 
 
Author Message

temkin_88 ®

Gender:

Longevity: 6 years 2 months

Posts: 16586

Post 12-May-2017 19:24

[Quote]

Я люблю свою землю. Песни композитора Евгения Птичкина (1981)
Страна: СССР
Жанр: Retro
Продолжительность: 0:47:55
Год выпуска: 1981 г.
Описание: Фильм-концерт 1981 года из песен композитора Евгения Птичкина.
Треклист:
  • Я люблю свою землю (слова: Владимир Харитонов) – Александра Стрельченко
  • Сладка ягода (слова: Роберт Рождественский) – Ольга Воронец
  • Когда уходит женщина (слова: Петр Градов) – Лев Лещенко
  • Сон-трава (слова: Татьяна Коршилова) – Валентина Толкунова
  • Эхо любви (слова: Роберт Рождественский) – Анна Герман и Лев Лещенко (Песня-77)
  • Зачем вы, девочки, красивых любите (слова: Игорь Шаферан) – Хор русской песни ЦТ и ВР
  • Такой у нас характер (фрагмент к\ф "Особо важное задание") (слова: Роберт Рождественский) – Людмила Гурченко
  • Даль великая (слова: Роберт Рождественский) – Иосиф Кобзон
  • Песня о дружбе (слова: Роберт Рождественский) – Виталий Соломин
  • Не дразните собак (слова: Михаил Пляцковский) – БДХ
  • Идет ребенок по земле (слова: Иван Тарба) – Валентина Толкунова
  • Земля моя добрая (слова: Сергей Островой) – Леонид СметанниковИсточник: cacsa с форума «Ностальгия»
    Качество: TVRip
    Контейнер: MPG
    Видео кодек: MPEG2
    Аудио кодек: AC3
    Видео: MPEG2, 704×576, 4:3, 2800 Kbps VBR, 25 fps
    Аудио: AC3, 192 Kbps, 48 kHz, 2 ch

    MediaInfo

    GeneralComplete name : D:\Torrents\Песни Евгения Птичкина (1981).mpgFormat : MPEG-PSFile size : 1.01 GiBDuration : 47mn 54sOverall bit rate mode : VariableOverall bit rate : 3 012 Kbps
    VideoID : 224 (0xE0)Format : MPEG VideoFormat version : Version 2Format profile : Main@MainFormat settings, BVOP : YesFormat settings, Matrix : CustomFormat settings, GOP : VariableDuration : 47mn 54sBit rate mode : VariableBit rate : 2 760 KbpsMaximum bit rate : 9 802 KbpsWidth : 704 pixelsHeight : 576 pixelsDisplay aspect ratio : 4:3Frame rate : 25.000 fpsStandard : PALColor space : YUVChroma subsampling : 4:2:0Bit depth : 8 bitsScan type : ProgressiveScan order : Top Field FirstCompression mode : LossyBits/(Pixel*Frame) : 0.272Time code of first frame : 00:00:00:00Time code source : Group of pictures headerStream size : 946 MiB (92%)
    AudioID : 189 (0xBD)-128 (0x80)Format : AC-3Format/Info : Audio Coding 3Mode extension : CM (complete main)Format settings, Endianness : BigMuxing mode : DVD-VideoDuration : 47mn 54sBit rate mode : ConstantBit rate : 192 KbpsChannel(s) : 2 channelsChannel positions : Front: L RSampling rate : 48.0 KHzBit depth : 16 bitsCompression mode : LossyDelay relative to video : -80msStream size : 65.8 MiB (6%)

    Скриншоты

    Скринлист

    [ru-zerkalo.org]_t_4843960
    Torrent: Registered ·  [ 2017-05-12 19:20 ] ·  23b80b785132fda5418955b1ccbd7b35e42d1281

    11 KB

    Status: checked
    Completed: 0 times
    Size: 1.01 GB
    Rating: 
    (Votes: 0)
    Say thanks: 0  Thanks
     
    Похожие темы
  • [Profile] [PM]
    Display posts from previous:    
    Reply to topic

    The time now is: Today 21:34

    All times are GMT + 7 Hours



    You cannot post new topics in this forum
    You cannot reply to topics in this forum
    You cannot edit your posts in this forum
    You cannot delete your posts in this forum
    You cannot vote in polls in this forum
    You cannot attach files in this forum
    You can download files in this forum