Register · 
Username: Password:
 ·  Forgot password?

Синяя тетрадь (Лев Кулиджанов) [1963, Историко-революционный, SATRip][Fullscreen]

Reply to topic
DL-List and Torrent activity [Update пиров]
Size:  1.37 GB   |    Registered:  2 years 9 months   |    Completed:  0 times

Seeder not seen: Never

 
   
 
 
 
Author Message

Shadow123 ®

Gender:

Longevity: 6 years 4 months

Posts: 15384

Post 10-May-2017 09:05

[Quote]

Синяя тетрадь
Жанр: Историко-революционный
Год выпуска: 1963
Продолжительность: 01:27:17
Режиссёр: Лев Кулиджанов
В ролях: Михаил Кузнецов, Марк (Михаил) Никельберг, Николай Лебедев, Александр Палеес, Эдишер Магалашвили, Василий Ливанов, Николай Граббе, Любовь Соколова, Игорь Озеров, В. Чуркин, Борис Токарев, Анатолий Антосевич, Виталий Матвеев
Описание: Историко-революционный фильм. По одноименной повести Эммануила Казакевича.
Лето 1917 года. По совету партийных товарищей В.И.Ленин переселяется из Петрограда туда, где его вряд ли будут искать. На ближайшие недели шалаш в Разливе станет скромным пристанищем для вождя мирового пролетариата и его соратни¬ка Григория Зиновьева. Здесь Ильич напишет свою знаменитую "Синюю тетрадь", утвердившись в необходимости вооруженно¬го восстания. По окончании лета он уедет в Финляндию, чтобы готовить революцию, но сейчас впереди у Владимира Ильича нелегкий этап кардинальных решений, которые изменят судьбу России.
Недолгий период "оттепели" позволил прославленному режиссеру Льву Кулиджанову ("Когда деревья были большими") экранизировать запрещённую повесть Эммануила Казакевича, показав ключевые фигуры революции с неожидан¬ного для официальной пропаганды ракурса. Это и привело к тому, что спустя неделю после премьеры этот замечательный и тонкий исторический фильм на долгие годы положили "на полку".
Семпл: http://multi-up.com/1149623
Качество видео: SATRip
Формат файла: AVI
Видео: MPEG4, XviD, 656x512 (1.281), 25.000 fps, 2 043 Kbps (0.243 bit/pixel)
Аудио: AC-3, 48.0 KHz, 2 ch, 192 Kbps, CBR

MediaInfo

Общее
Полное имя : M:\Синяя тетрадь.avi
Формат файла : AVI
Формат файла/Информация : Audio Video Interleave
Размер файла : 1,37 Гбайт
Продолжительность : 1 ч. 27 м.
Общий поток : 2245 Кбит/сек
Название фильма : Синяя тетрадь (1963)
Программа кодирования : VirtualDubMod 1.5.10.2 (build 2540/release)
Библиотека кодирования : VirtualDubMod build 2540/release
Видео
Идентификатор : 0
Формат файла : MPEG-4 Visual
Профиль формата : Advanced Simple@L5
Параметр BVOP формата : 1
Параметр QPel формата : Нет
Параметр GMC формата : Без точки перехода
Параметр матрицы формата : Выборочная
Идентификатор кодека : XVID
Идентификатор кодека/Подсказка : XviD
Продолжительность : 1 ч. 27 м.
Битрейт : 2043 Кбит/сек
Ширина : 656 пикселей
Высота : 512 пикселей
Соотношение сторон : 1,281
Частота кадров : 25,000 кадров/сек
Цветовое пространство : YUV
Субдискретизация насыщенности : 4:2:0
Битовая глубина : 8 бит
Тип развёртки : Прогрессивная
Метод сжатия : С потерями
Бит/(Пиксели*Кадры) : 0.243
Размер потока : 1,25 Гбайт (91%)
Библиотека кодирования : XviD 65
Аудио
Идентификатор : 1
Формат файла : AC-3
Формат файла/Информация : Audio Coding 3
Расширение режима : CM (complete main)
Параметр Endianness формата : Big
Идентификатор кодека : 2000
Продолжительность : 1 ч. 27 м.
Вид битрейта : Постоянный
Битрейт : 192 Кбит/сек
Каналы : 2 канала
Расположение каналов : Front: L R
Частота : 48,0 КГц
Частота кадров : 31,250 кадров/сек (1536 spf)
Метод сжатия : С потерями
Размер потока : 120 Мбайт (9%)
Выравнивание : Разделение по промежуткам
Продолжительность промежутка : 40 мс. (1,00 видеокадр)
Время предзагрузки промежутка : 500 мс.

Скриншоты


[ru-zerkalo.org]_t_5386807
Torrent: Registered ·  [ 2017-05-10 09:05 ] ·  0580e784d6cf005a3d57bbc7c6962247239c696b

14 KB

Status: checked
Completed: 0 times
Size: 1.37 GB
Rating: 
(Votes: 0)
Say thanks: 0  Thanks
 
Похожие темы
[Profile] [PM]
Display posts from previous:    
Reply to topic

The time now is: Today 01:29

All times are GMT + 7 Hours



You cannot post new topics in this forum
You cannot reply to topics in this forum
You cannot edit your posts in this forum
You cannot delete your posts in this forum
You cannot vote in polls in this forum
You cannot attach files in this forum
You can download files in this forum